BitTorrentTracker PerecTracker.org
BitTorrentTracker PerecTracker.org
    
Регистрация  ·  Вход
 
 · 
Забыли пароль?

  • Клиника доктора Бланша / La clinique du docteur Blanche (Сара Леви / Sarah Lévy) [2014, Франция, исторический, драма, экранизация, HDTVRip] Original Fre + Sub Rus

    Ответить на тему
     
    Автор Сообщение

    rechyn

    Создавать темы 15-Янв-2016 01:01

           

    [Цитировать]

    Клиника доктора Бланша / La clinique du docteur BlancheСтрана: Франция
    Жанр: исторический, драма, экранизация
    Год выпуска: 2014
    Продолжительность: 01:32:35
    Перевод: Субтитры (русский перевод И.Безлюдной, Éclair Group)
    Cубтитры: русские
    Оригинальная аудиодорожка: французский
    Режиссер: Сара Леви / Sarah Lévy
    В ролях: Лионель Астье, Мишель Бертэ, Натали Бойер, Стефан Бюте, Джули Дюкло, Херв Ганем, Люк Жантиль, Ив Гурвиль, Филипп Лоденбаш, Энтони Ле Фолл, Даниель Лебрюн, Грегуар Лепренс-Ренге, Бруно Лоше, Беатрис Мишель, Матиас Мин, Бруно Павио, Ален Раймон, Серж Рябукин, Седрик Вебер, Стэнли Вебер
    Описание: Вольная адаптация книги Лор Мюра "Пансион доктора Бланша" (La maison du docteur Blanche (2001)).
    1850 год. Молодой ученый-медик Эмиль Бланш закончил стажировку в государственной больнице Сальпетриер под руководством психиатра профессора Лоре, практикующего на пациентах крайне жестокие методы, и приступает к работе в психиатрической клинике своего отца Эсприта Бланша в поместье Пасси. Здесь практикуется совсем другой подход к пациентам. В роскошных залах находят отдохновение аристократы, художники и писатели, скрывающие от общества свое безумие. Пациентами клиники доктора Бланша были: композитор Шарль Гуно, младший брат великого художника Винсента ван Гога Тео, писатель Ги де Мопассан, поэт Жерар де Нерваль. Два мира: государственных и частных клиник практикует совершенно разные методы лечения психических заболеваний. Желая бросить вызов своему учителю, Эмиль забирает в клинику отца пациента с асфазией, в результате которой тот полностью лишен речи…
    Доп. информация: Собственный рип. Cпасибо ralf124c41+!
    Сэмпл: http://multi-up.com/1084258
    Качество видео: HDTVRip
    Исходник: La clinique du docteur Blanche.2014.720p.HDTV.x264
    Формат видео: AVI
    Видео: XviD, 720x400 (16:9), 25.000 fps, 1920 kbps avg
    Аудио: France AC3 Dolby Digital, 48 kHz, 2/0 (L,R) ch, 192.00 kbps
    Формат субтитров: softsub (SRT)

    MediaInfo

    General
    Complete name : F:\La clinique du Docteur Blanche.2014\La clinique du Docteur Blanche.2014.HDTVRip.avi
    Format : AVI
    Format/Info : Audio Video Interleave
    File size : 1.37 GiB
    Duration : 1h 32mn
    Overall bit rate : 2 122 Kbps
    Writing application : VirtualDubMod 1.5.10.3 | www.virtualdub-fr.org || (build 2550/release)
    Writing library : VirtualDubMod build 2550/release
    Video
    ID : 0
    Format : MPEG-4 Visual
    Format profile : Advanced Simple@L5
    Format settings, BVOP : 1
    Format settings, QPel : No
    Format settings, GMC : No warppoints
    Format settings, Matrix : Custom
    Codec ID : XVID
    Codec ID/Hint : XviD
    Duration : 1h 32mn
    Bit rate : 1 920 Kbps
    Width : 720 pixels
    Height : 400 pixels
    Display aspect ratio : 16:9
    Frame rate : 25.000 fps
    Color space : YUV
    Chroma subsampling : 4:2:0
    Bit depth : 8 bits
    Scan type : Progressive
    Compression mode : Lossy
    Bits/(Pixel*Frame) : 0.267
    Stream size : 1.24 GiB (90%)
    Writing library : XviD 73
    Audio
    ID : 1
    Format : AC-3
    Format/Info : Audio Coding 3
    Mode extension : CM (complete main)
    Format settings, Endianness : Big
    Codec ID : 2000
    Duration : 1h 32mn
    Bit rate mode : Constant
    Bit rate : 192 Kbps
    Channel(s) : 2 channels
    Channel positions : Front: L R
    Sampling rate : 48.0 KHz
    Compression mode : Lossy
    Stream size : 127 MiB (9%)
    Alignment : Split accross interleaves
    Interleave, duration : 40 ms (1.00 video frame)
    Interleave, preload duratio : 500 ms

    Скриншоты

    Скачать .torrent

    Скачать торрент-файл бесплатно и на максимальной скорости!

    Как скачивать? · Что такое торрент? · Рейтинг и ограничения

    !ВНИМАНИЕ!
    Сайт не распространяет и не хранит электронные версии произведений, а занимается лишь лишь предоставлением доступа к создаваемому пользователями каталогу ссылок на торрент-файлы, которые содержат только списки хеш-сумм, убедительная просьба с жалобами обращаться напрямую к пользователю. Файлы для обмена на трекере предоставлены пользователями сайта, и администрация не несёт ответственности за их содержание. Просьба не заливать файлы, защищенные авторскими правами, а также файлы нелегального содержания!


    _________________
    [Профиль] [ЛС]
    Показать сообщения:    
    Ответить на тему

    Текущее время: Сегодня, в 10:34

    Часовой пояс: GMT + 2



    Вы не можете начинать темы
    Вы не можете отвечать на сообщения
    Вы не можете редактировать свои сообщения
    Вы не можете удалять свои сообщения
    Вы не можете голосовать в опросах
    Вы не можете прикреплять файлы к сообщениям
    Вы не можете скачивать файлы