BitTorrentTracker PerecTracker.org
BitTorrentTracker PerecTracker.org
    
Регистрация  ·  Вход
 
 · 
Забыли пароль?

  • Американская история ужасов. Отель / American Horror Story. Hotel / Сезон: 5 / Серии: 1-12 из 12 (Брэдли Букер, Майкл Аппендаль, Майкл Леманн) [2015, Ужасы, фэнтези, триллер, драма, HDTVRip 720p] MVO (Amedia)

    Ответить на тему
     
    Автор Сообщение

    rechyn

    Создавать темы 14-Янв-2016 19:37

           

    [Цитировать]

    -Американская история ужасов. Отель | American Horror Story. Hotel--• Год выпуска: 2015
    • Страна: США
    • Жанр: Ужасы, фэнтези, триллер, драма
    • Продолжительность: ~ 00:55:00-• Перевод: Профессиональный (многоголосый закадровый) | Amedia-• Режиссёр: Брэдли Букер, Майкл Аппендаль, Альфонсо Гомез-Рейон, Майкл Леманн-• В ролях: Леди Гага, Эван Питерс, Джессика Лэнг, Лили Рэйб, Фрэнсис Конрой, Сара Полсон, Таисса Фармига, Дэнис О`Харе, Закари Куинто, Дилан МакДермотт, Джэми Брюэр, Кэти Бэйтс, Джозеф Файнс, Лиззи Брошере, Эмма Робертс, Джеймс Кромуэлл, Конни Бриттон, Анджела Бассетт, Габури Сидибе, Кейт Мара-• Описание: Пятая часть антологии кошмаров и городских легенд, полная отсылок к лучшим традициям хоррор фильмов. В этот раз действие разворачивается в старом отеле в центре Лос-Анджелеса, который таит в себе много необъяснимых загадок. Звездой сезона стала Леди Гага в роли богатой графини и владелицы отеля «Кортес». В новом сезоне сразу два главных злодея, настоящий любовный треугольник, больше внимания к мужским ролям, отсылки к первому сезону и много-много крови. В «Отель» помимо постоянного актерского состава заселились Мэтт Бомер, Шайен Джексон, Макс Гринфилд и модель Наоми Кэмпбелл, уже успевшая блеснуть в «Империи».--Ссылка на предыдущие и альтернативные раздачи-• Качество: HDTVRip 720p
    • Формат: MKV
    • Видео: X264, 1280x720 (16:9), 25 fps, ~4000 kbps
    • Аудио #1: AC3, 48 kHz, 2 ch, 192 kbps, CBR - Rus
    • Аудио #2: AC3, 48 kHz, 2 ch, 192 kbps, CBR - Rus
    • Субтитры: отсутствуют-

    ✘ Релиз ✘

    работа со звуком qqss44
    за исходник 1й серии большое спасибо BS666
    Роли озвучивали: Ирина Киреева, Марина Бакина, Екатерина Семёнова, Анастасия Лапина, Антон Колесников, Кирилл Туранский, Сергей Чихачёв, Дмитрий Поляновский, Сергей Смирнов

    ✘ MediaInfo ✘

    Общее
    Уникальный идентификатор                 : 203085640507870721735814585538835888909 (0x98C8DF2355B879578CB483238837BB0D)
    Формат                                   : Matroska
    Версия формата                           : Version 2
    Размер файла                             : 2,18 Гбайт
    Продолжительность                        : 1 ч. 7 м.
    Общий поток                              : 4642 Кбит/сек
    Название фильма                          : American.Horror.Story.S05E01.720p.HDTV.x264-CasStudio
    Дата кодирования                         : UTC 2015-10-15 16:05:14
    Программа кодирования                    : mkvmerge v7.9.0 ('Birds') 64bit
    Библиотека кодирования                   : libebml v1.3.1 + libmatroska v1.4.2
    DURATION                                 : 01:07:11.360000000
    NUMBER_OF_FRAMES                         : 125980
    NUMBER_OF_BYTES                          : 96752640
    _STATISTICS_WRITING_APP                  : mkvmerge v7.9.0 ('Birds') 64bit
    _STATISTICS_WRITING_DATE_UTC             : 2015-10-15 16:05:14
    _STATISTICS_TAGS                         : BPS DURATION NUMBER_OF_FRAMES NUMBER_OF_BYTES
    Видео
    Идентификатор                            : 1
    Формат                                   : AVC
    Формат/Информация                        : Advanced Video Codec
    Профиль формата                          : High@L4.1
    Параметр CABAC формата                   : Да
    Параметр ReFrames формата                : 5 кадров
    Идентификатор кодека                     : V_MPEG4/ISO/AVC
    Продолжительность                        : 1 ч. 7 м.
    Битрейт                                  : 4166 Кбит/сек
    Ширина                                   : 1280 пикселей
    Высота                                   : 720 пикселей
    Соотношение сторон                       : 16:9
    Режим частоты кадров                     : Постоянный
    Частота кадров                           : 25,000 кадров/сек
    Цветовое пространство                    : YUV
    Субдискретизация насыщенности            : 4:2:0
    Битовая глубина                          : 8 бит
    Тип развёртки                            : Прогрессивная
    Бит/(Пиксели*Кадры)                      : 0.181
    Размер потока                            : 1,96 Гбайт (90%)
    Библиотека кодирования                   : x264 core 148 r2597 e86f3a1
    Настройки программы                      : cabac=1 / ref=5 / deblock=1:0:0 / analyse=0x3:0x113 / me=umh / subme=8 / psy=1 / psy_rd=1.00:0.00 / mixed_ref=1 / me_range=16 / chroma_me=1 / trellis=1 / 8x8dct=1 / cqm=0 / deadzone=21,11 / fast_pskip=1 / chroma_qp_offset=-2 / threads=22 / lookahead_threads=3 / sliced_threads=0 / nr=0 / decimate=1 / interlaced=0 / bluray_compat=0 / constrained_intra=0 / bframes=3 / b_pyramid=2 / b_adapt=2 / b_bias=0 / direct=3 / weightb=1 / open_gop=0 / weightp=2 / keyint=250 / keyint_min=23 / scenecut=40 / intra_refresh=0 / rc_lookahead=50 / rc=crf / mbtree=1 / crf=18.0 / qcomp=0.60 / qpmin=0 / qpmax=69 / qpstep=4 / ip_ratio=1.40 / aq=1:1.00
    Язык                                     : English
    Default                                  : Да
    Forced                                   : Нет
    Цветовой диапазон                        : Limited
    Коэффициенты матрицы                     : BT.709
    DURATION                                 : 01:07:11.360000000
    NUMBER_OF_FRAMES                         : 100784
    NUMBER_OF_BYTES                          : 2144832669
    _STATISTICS_WRITING_APP                  : mkvmerge v7.9.0 ('Birds') 64bit
    _STATISTICS_WRITING_DATE_UTC             : 2015-10-15 16:05:14
    _STATISTICS_TAGS                         : BPS DURATION NUMBER_OF_FRAMES NUMBER_OF_BYTES
    Аудио #1
    Идентификатор                            : 2
    Формат                                   : AC-3
    Формат/Информация                        : Audio Coding 3
    Расширение режима                        : CM (complete main)
    Параметр Endianness формата              : Big
    Идентификатор кодека                     : A_AC3
    Продолжительность                        : 1 ч. 7 м.
    Вид битрейта                             : Постоянный
    Битрейт                                  : 192 Кбит/сек
    Каналы                                   : 2 канала
    Расположение каналов                     : Front: L R
    Частота                                  : 48,0 КГц
    Метод сжатия                             : С потерями
    Размер потока                            : 92,3 Мбайт (4%)
    Язык                                     : Russian
    Default                                  : Да
    Forced                                   : Нет
    Аудио #2
    Идентификатор                            : 3
    Формат                                   : AC-3
    Формат/Информация                        : Audio Coding 3
    Расширение режима                        : CM (complete main)
    Параметр Endianness формата              : Big
    Идентификатор кодека                     : A_AC3
    Продолжительность                        : 1 ч. 7 м.
    Вид битрейта                             : Постоянный
    Битрейт                                  : 192 Кбит/сек
    Каналы                                   : 2 канала
    Расположение каналов                     : Front: L R
    Частота                                  : 48,0 КГц
    Метод сжатия                             : С потерями
    Размер потока                            : 92,3 Мбайт (4%)
    Язык                                     : English
    Default                                  : Нет
    Forced                                   : Нет

    ✘ Скриншоты ✘

    -
    Скачать .torrent

    Скачать торрент-файл бесплатно и на максимальной скорости!

    Как скачивать? · Что такое торрент? · Рейтинг и ограничения

    !ВНИМАНИЕ!
    Сайт не распространяет и не хранит электронные версии произведений, а занимается лишь лишь предоставлением доступа к создаваемому пользователями каталогу ссылок на торрент-файлы, которые содержат только списки хеш-сумм, убедительная просьба с жалобами обращаться напрямую к пользователю. Файлы для обмена на трекере предоставлены пользователями сайта, и администрация не несёт ответственности за их содержание. Просьба не заливать файлы, защищенные авторскими правами, а также файлы нелегального содержания!


    _________________
    [Профиль] [ЛС]
    Показать сообщения:    
    Ответить на тему

    Текущее время: Сегодня, в 01:14

    Часовой пояс: GMT + 2



    Вы не можете начинать темы
    Вы не можете отвечать на сообщения
    Вы не можете редактировать свои сообщения
    Вы не можете удалять свои сообщения
    Вы не можете голосовать в опросах
    Вы не можете прикреплять файлы к сообщениям
    Вы не можете скачивать файлы