BitTorrentTracker PerecTracker.org
BitTorrentTracker PerecTracker.org
    
Регистрация  ·  Вход
 
 · 
Забыли пароль?

  • Сочувствующая сторона / Bleeding Heart (Дайан Белл / Diane Bell) [2015, США, драма, WEB-DLRip] DVO (Parovoz Production) + Original Eng

    Ответить на тему
     
    Автор Сообщение

    rechyn

    Создавать темы 14-Янв-2016 08:13

           

    [Цитировать]

    Сочувствующая сторона / Bleeding Heart
    Страна: США
    Жанр: драма
    Год выпуска: 2015
    Продолжительность: 01:26:38-Перевод: Любительский (двухголосный закадровый) Parovoz Production
    Cубтитры: нет
    Оригинальная аудиодорожка: английский-Режиссер: Дайан Белл / Diane Bell-В ролях: Джессика Бил, Заша Мэмет, Лэйси Алессандра, Маурицио Гомес Аморетти, Джо Андерсон, Нандини Бапат, Exie Booker, Мишель Брю, Кейт Бёртон, Эди Гатеги-Описание: Мая и Шива — две молодые и привлекательные девушки, две родные сестры, похожие друг на друга, словно две капли воды. Когда девочки были еще совсем маленькими, судьба распорядилась так, что им пришлось расстаться. С тех пор прошло много лет, и каждая из них живет своей жизнью, даже не задумываясь, что происходит на данный момент с ее родной сестрой. Мая выросла красивой девушкой, изучила йогу, и теперь работает профессиональным инструктором по йоге. У нее есть молодой человек, и все постепенно идет к свадьбе. В общем, все у девушки хорошо.
    Но однажды все изменилось, когда к ней в дом постучалась Шива и рассказала свою душераздирающую историю. Оказывается, Шиве жилось тяжело. Чтобы прокормить себя, несчастная девушка была вынуждена торговать своим телом, и это далеко не все ее жизненные тяготы и невзгоды. Мая понимает, что теперь обязана помочь своей сестре.-Сэмпл: http://sendfile.su/1193023-Качество видео: WEB-DLRip
    Формат видео: AVI
    Видео: 720x304 (2.37:1), 23.976 fps, XviD build 50 ~1787 kbps avg, 0.34 bit/pixel
    Аудио: #1: 48 kHz, AC3 Dolby Digital, 2/0 (L,R) ch, ~192 kbps
    Аудио: #2: 48 kHz, AC3 Dolby Digital, 3/2 (L,C,R,l,r) + LFE ch, ~384 kbps


    MediaInfo

    Формат : AVI
    Формат/Информация : Audio Video Interleave
    Размер файла : 1,44 Гбайт
    Продолжительность : 1 ч. 26 м.
    Общий поток : 2378 Кбит/сек
    Программа кодирования : VirtualDubMod 1.5.10.3 | www.virtualdub-fr.org || (build 2550/release)
    Библиотека кодирования : VirtualDubMod build 2550/release
    Видео
    Идентификатор : 0
    Формат : MPEG-4 Visual
    Профиль формата : Advanced Simple@L5
    Параметр BVOP формата : 1
    Параметр QPel формата : Нет
    Параметр GMC формата : Без точки перехода
    Параметр матрицы формата : Default (MPEG)
    Идентификатор кодека : XVID
    Идентификатор кодека/Подсказка : XviD
    Продолжительность : 1 ч. 26 м.
    Битрейт : 1788 Кбит/сек
    Ширина : 720 пикселей
    Высота : 304 пикселя
    Соотношение сторон : 2,35:1
    Частота кадров : 23,976 (23976/1000) кадра/сек
    Цветовое пространство : YUV
    Субдискретизация насыщенности : 4:2:0
    Битовая глубина : 8 бит
    Тип развёртки : Прогрессивная
    Метод сжатия : С потерями
    Бит/(Пиксели*Кадры) : 0.341
    Размер потока : 1,08 Гбайт (75%)
    Библиотека кодирования : XviD 1.2.1 (UTC 2008-12-04)
    Аудио #1
    Идентификатор : 1
    Формат : AC-3
    Формат/Информация : Audio Coding 3
    Расширение режима : CM (complete main)
    Параметр Endianness формата : Big
    Идентификатор кодека : 2000
    Продолжительность : 1 ч. 26 м.
    Вид битрейта : Постоянный
    Битрейт : 192 Кбит/сек
    Каналы : 2 канала
    Расположение каналов : Front: L R
    Частота : 48,0 КГц
    Частота кадров : 31,250 кадров/сек (1536 spf)
    Метод сжатия : С потерями
    Размер потока : 119 Мбайт (8%)
    Выравнивание : Разделение по промежуткам
    Продолжительность промежутка : 42 мс. (1,00 видеокадр)
    Время предзагрузки промежутка : 500 мс.
    Аудио #2
    Идентификатор : 2
    Формат : AC-3
    Формат/Информация : Audio Coding 3
    Расширение режима : CM (complete main)
    Параметр Endianness формата : Big
    Идентификатор кодека : 2000
    Продолжительность : 1 ч. 26 м.
    Вид битрейта : Постоянный
    Битрейт : 384 Кбит/сек
    Каналы : 6 каналов
    Расположение каналов : Front: L C R, Side: L R, LFE
    Частота : 48,0 КГц
    Частота кадров : 31,250 кадров/сек (1536 spf)
    Метод сжатия : С потерями
    Задержка видео : 13 мс.
    Размер потока : 238 Мбайт (16%)
    Выравнивание : Разделение по промежуткам
    Продолжительность промежутка : 42 мс. (1,00 видеокадр)
    Время предзагрузки промежутка : 500 мс.

    Скриншот c названием фильма

    Скриншоты






    Скачать .torrent

    Скачать торрент-файл бесплатно и на максимальной скорости!

    Как скачивать? · Что такое торрент? · Рейтинг и ограничения

    !ВНИМАНИЕ!
    Сайт не распространяет и не хранит электронные версии произведений, а занимается лишь лишь предоставлением доступа к создаваемому пользователями каталогу ссылок на торрент-файлы, которые содержат только списки хеш-сумм, убедительная просьба с жалобами обращаться напрямую к пользователю. Файлы для обмена на трекере предоставлены пользователями сайта, и администрация не несёт ответственности за их содержание. Просьба не заливать файлы, защищенные авторскими правами, а также файлы нелегального содержания!


    _________________
    [Профиль] [ЛС]
    Показать сообщения:    
    Ответить на тему

    Текущее время: Сегодня, в 09:56

    Часовой пояс: GMT + 2



    Вы не можете начинать темы
    Вы не можете отвечать на сообщения
    Вы не можете редактировать свои сообщения
    Вы не можете удалять свои сообщения
    Вы не можете голосовать в опросах
    Вы не можете прикреплять файлы к сообщениям
    Вы не можете скачивать файлы