BitTorrentTracker PerecTracker.org
BitTorrentTracker PerecTracker.org
    
Регистрация  ·  Вход
 
 · 
Забыли пароль?

  • Дикие истории / Wild Tales / Relatos salvajes (Дамиан Шифрон / Damián Szifron) [2014, Аргентина, Испания, Киноальманах, чёрная комедия, драма, BDRip] Dub (iTunes) + Sub Rus + Original Spa

    Ответить на тему
     
    Автор Сообщение

    rechyn

    Создавать темы 14-Янв-2016 00:00

           

    [Цитировать]

    Дикие истории / Wild Tales / Relatos salvajes
    Совместное производство: Аргентина, Испания
    Жанр: Киноальманах, чёрная комедия, драма
    Год выпуска: 2014
    Продолжительность: 02:01:59
    Перевод: Профессиональный (дублированный) iTunes
    Cубтитры: русские (SubRip format) отдельно вложенные [holoff]
    Оригинальная аудиодорожка: испанский отдельно вложенная
    Режиссёр: Дамиан Шифрон / Damián Szifron
    Актёры: Рикардо Дарин, Леонардо Сбаралья, Дарио Грандинетти, Эрика Ривас, Хульета Сильберберг, Мария Онетто, Оскар Мартинес, Рита Кортезе, Нэнси Дуплаа, Осмар Нуньес, и др.
    Аннотация: Калейдоскоп узнаваемых характеров, шесть отдельных историй, смешных, безумных, шокирующих.
    Стремление к успеху, соперничество, неуверенность, нестабильность и, как результат, стрессы и депрессии, последствия которых часто бывают кошмарными. Таков наш мир.
    Гэбриела Пастернака обижали многие, с кем сводила его жизнь – девушка, учитель музыки, профессор в консерватории, дантист. И вот все они, на свою беду, оказались вместе с ним в одном самолете…
    Ночью в придорожной закусочной официантка узнает в посетителе ростовщика, который много лет назад довел до самоубийства ее отца. А у поварихи, в прошлом отсидевшей срок, для мести такому гаду сразу нашлось средство – крысиный яд…
    Городской красавчик ехал на своей мощной Audi по пустынной дороге и решил обогнать старый Peugeot, но сидевший за рулем провинциальный упырь решил не уступать. И вот уже кровавый итог бессмысленного соперничества не за горами…

    Качество видео: BDRip [Relatos.salvajes.2014.BDRemux.1080p nnm-club]
    Формат видео: AVI
    Video: XviD 73 MPEG-4, 720x304, 2.35:1, 23.976 fps, ~2124 kbps avg, 0.405 bit/pixel
    Audio #1: AC-3 Dolby Digital, CBR 384 kbps 6 ch, Front: L C R, Side: L R, LFE, 48.0 KHz
    Audio #2: AC-3 Dolby Digital, CBR 448 kbps 6 ch, Front: L C R, Side: L R, LFE, 48.0 KHz отдельно

    MediaInfo

    ОбщееПолное имя : S:\Relatos_salvajes_2014_BDRip_[perectracker.org]\Relatos_salvajes_2014_BDRip.aviФормат : AVIФормат/Информация : Audio Video InterleaveПрофиль формата : OpenDMLРазмер файла : 2,15 ГбайтПродолжительность : 2 ч. 1 м.Общий поток : 2519 Кбит/секНазвание фильма : Relatos_salvajes_2014_BDRipРежиссёр : OGORODNIKOFFFЖанр : Чёрная комедияПрограмма кодирования : VirtualDubModRus 1.5.10.2 (build 2542/release)Формат оригинала/Имя : Фильмы 2011-2015Правообладатель : perectracker.orgПримечание : Дата рипа 13 января 2016 года
    ВидеоИдентификатор : 0Формат : MPEG-4 VisualПрофиль формата : Advanced Simple@L5Параметр BVOP формата : 1Параметр QPel формата : НетПараметр GMC формата : Без точки переходаПараметр матрицы формата : Default (MPEG)Идентификатор кодека : DX50Идентификатор кодека/Подсказка : DivX 5Продолжительность : 2 ч. 1 м.Битрейт : 2124 Кбит/секШирина : 720 пикселейВысота : 304 пикселяСоотношение сторон : 2,35:1Частота кадров : 23,976 кадра/секЦветовое пространство : YUVСубдискретизация насыщенности : 4:2:0Битовая глубина : 8 битТип развёртки : ПрогрессивнаяМетод сжатия : С потерямиБит/(Пиксели*Кадры) : 0.405Размер потока : 1,81 Гбайт (84%)Библиотека кодирования : XviD 73
    АудиоИдентификатор : 1Формат : AC-3Формат/Информация : Audio Coding 3Расширение режима : CM (complete main)Параметр Endianness формата : BigИдентификатор кодека : 2000Продолжительность : 2 ч. 1 м.Вид битрейта : ПостоянныйБитрейт : 384 Кбит/секКаналы : 6 каналовРасположение каналов : Front: L C R, Side: L R, LFEЧастота : 48,0 КГцБитовая глубина : 16 битМетод сжатия : С потерямиРазмер потока : 335 Мбайт (15%)Выравнивание : Разделение по промежуткамПродолжительность промежутка : 42 мс. (1,00 видеокадр)Время предзагрузки промежутка : 500 мс.
    ОбщееПолное имя : S:\Relatos_salvajes_2014_BDRip_[perectracker.org]\Relatos_salvajes_2014_BDRip.rus.srtФормат : SubRipРазмер файла : 75,3 Кбайт
    ТекстФормат : SubRipМетод сжатия : Без потерь
    ОбщееПолное имя : S:\Relatos_salvajes_2014_BDRip_[perectracker.org]\Relatos_salvajes_2014_BDRip.spa.ac3Формат : AC-3Формат/Информация : Audio Coding 3Размер файла : 391 МбайтПродолжительность : 2 ч. 1 м.Режим общего битрейта : ПостоянныйОбщий поток : 448 Кбит/сек
    АудиоФормат : AC-3Формат/Информация : Audio Coding 3Расширение режима : CM (complete main)Параметр Endianness формата : BigПродолжительность : 2 ч. 1 м.Вид битрейта : ПостоянныйБитрейт : 448 Кбит/секКаналы : 6 каналовРасположение каналов : Front: L C R, Side: L R, LFEЧастота : 48,0 КГцБитовая глубина : 16 битМетод сжатия : С потерямиРазмер потока : 391 Мбайт (100%)

    Скриншот c названием фильма

    Скриншоты

    Время раздачи - по возможности.
    Скачать .torrent

    Скачать торрент-файл бесплатно и на максимальной скорости!

    Как скачивать? · Что такое торрент? · Рейтинг и ограничения

    !ВНИМАНИЕ!
    Сайт не распространяет и не хранит электронные версии произведений, а занимается лишь лишь предоставлением доступа к создаваемому пользователями каталогу ссылок на торрент-файлы, которые содержат только списки хеш-сумм, убедительная просьба с жалобами обращаться напрямую к пользователю. Файлы для обмена на трекере предоставлены пользователями сайта, и администрация не несёт ответственности за их содержание. Просьба не заливать файлы, защищенные авторскими правами, а также файлы нелегального содержания!


    _________________
    [Профиль] [ЛС]
    Показать сообщения:    
    Ответить на тему

    Текущее время: Сегодня, в 03:14

    Часовой пояс: GMT + 2



    Вы не можете начинать темы
    Вы не можете отвечать на сообщения
    Вы не можете редактировать свои сообщения
    Вы не можете удалять свои сообщения
    Вы не можете голосовать в опросах
    Вы не можете прикреплять файлы к сообщениям
    Вы не можете скачивать файлы