BitTorrentTracker PerecTracker.org
BitTorrentTracker PerecTracker.org
    
Регистрация  ·  Вход
 
 · 
Забыли пароль?

  • (Black Metal) Fhoi Myore - Fhoi Myore - 2012, FLAC (image+.cue), lossless

    Ответить на тему
     
    Автор Сообщение

    Columb

    Создавать темы 01-Сен-2013 13:30

           

    [Цитировать]

    Fhoi Myore / Fhoi Myore
    Жанр: Black Metal
    Страна-производитель диска: France
    Год издания: 2012
    Издатель (лейбл): Ancestrale Production
    Номер по каталогу: AP08 (lim. to 500 copies)
    Страна: France (Nice, Provence-Alpes-Côte d'Azur)
    Аудиокодек: FLAC (*.flac)
    Тип рипа: image+.cue
    Битрейт аудио: lossless
    Продолжительность: 00:51:02
    Источник (релизер): Original CD (Собственный рип)
    Наличие сканов в содержимом раздачи: Да (.jpg 600dpi)
    Треклист:
    01. Drum & Horn 01:31
    02. I'm the Master of Hounds 07:24
    03. Caer Malhod 06:53
    04. Errances 05:48
    05. Sreng of the VII Swords 02:13
    06. The One Eyed 03:54
    07. Forest 06:10
    08. My Blood Is Made of Sap 04:53
    09. Linceul Glacial - Gaynor 06:48
    10. Songes Funestes 05:32

    Лог создания рипа

    Exact Audio Copy V1.0 beta 2 from 29. April 2011
    EAC extraction logfile from 31. August 2013, 19:48
    Fhoi Myore / Fhoi Myore
    Used drive : hp DVDRAM GT31L Adapter: 0 ID: 1
    Read mode : Secure
    Utilize accurate stream : Yes
    Defeat audio cache : Yes
    Make use of C2 pointers : No
    Read offset correction : 103
    Overread into Lead-In and Lead-Out : No
    Fill up missing offset samples with silence : Yes
    Delete leading and trailing silent blocks : No
    Null samples used in CRC calculations : Yes
    Used interface : Native Win32 interface for Win NT & 2000
    Used output format : Internal WAV Routines
    Sample format : 44.100 Hz; 16 Bit; Stereo
    TOC of the extracted CD
    Track | Start | Length | Start sector | End sector
    ---------------------------------------------------------
    1 | 0:00.00 | 1:30.48 | 0 | 6797
    2 | 1:30.48 | 7:23.48 | 6798 | 40070
    3 | 8:54.21 | 6:52.48 | 40071 | 71018
    4 | 15:46.69 | 5:47.48 | 71019 | 97091
    5 | 21:34.42 | 2:12.48 | 97092 | 107039
    6 | 23:47.15 | 3:53.48 | 107040 | 124562
    7 | 27:40.63 | 6:09.48 | 124563 | 152285
    8 | 33:50.36 | 4:52.48 | 152286 | 174233
    9 | 38:43.09 | 6:47.48 | 174234 | 204806
    10 | 45:30.57 | 5:31.48 | 204807 | 229679
    Range status and errors
    Selected range
    Filename D:\Torosar\EAC\Fhoi Myore - Fhoi Myore (2012)\Fhoi Myore - Fhoi Myore.wav
    Peak level 98.8 %
    Extraction speed 2.0 X
    Range quality 100.0 %
    Test CRC D5B0650D
    Copy CRC D5B0650D
    Copy OK
    No errors occurred
    AccurateRip summary
    Track 1 accurately ripped (confidence 1) [6343C1B2] (AR v2)
    Track 2 not present in database
    Track 3 not present in database
    Track 4 not present in database
    Track 5 not present in database
    Track 6 not present in database
    Track 7 not present in database
    Track 8 not present in database
    Track 9 not present in database
    Track 10 not present in database
    1 track(s) accurately ripped
    9 track(s) not present in the AccurateRip database
    Some tracks could not be verified as accurate
    End of status report
    ==== Log checksum 559738B6B7E614C5A4AA09B0E8DEA538174588C732AFF8CE3B2E547E38435CD1 ====

    Содержание индексной карты (.CUE)

    REM GENRE "Black Metal"
    REM DATE 2012
    REM DISCID 820BF60A
    REM COMMENT "ExactAudioCopy v1.0b2"
    PERFORMER "Fhoi Myore"
    TITLE "Fhoi Myore"
    FILE "Fhoi Myore - Fhoi Myore.flac" WAVE
    TRACK 01 AUDIO
    TITLE "Drum & Horn"
    PERFORMER "Fhoi Myore"
    INDEX 01 00:00:00
    TRACK 02 AUDIO
    TITLE "I'm the Master of Hounds"
    PERFORMER "Fhoi Myore"
    INDEX 01 01:30:48
    TRACK 03 AUDIO
    TITLE "Caer Malhod"
    PERFORMER "Fhoi Myore"
    INDEX 01 08:54:21
    TRACK 04 AUDIO
    TITLE "Errances"
    PERFORMER "Fhoi Myore"
    INDEX 01 15:46:69
    TRACK 05 AUDIO
    TITLE "Sreng of the VII Swords"
    PERFORMER "Fhoi Myore"
    INDEX 01 21:34:42
    TRACK 06 AUDIO
    TITLE "The One Eyed"
    PERFORMER "Fhoi Myore"
    INDEX 01 23:47:15
    TRACK 07 AUDIO
    TITLE "Forest"
    PERFORMER "Fhoi Myore"
    INDEX 01 27:40:63
    TRACK 08 AUDIO
    TITLE "My Blood Is Made of Sap"
    PERFORMER "Fhoi Myore"
    INDEX 01 33:50:36
    TRACK 09 AUDIO
    TITLE "Linceul Glacial - Gaynor"
    PERFORMER "Fhoi Myore"
    INDEX 01 38:43:09
    TRACK 10 AUDIO
    TITLE "Songes Funestes"
    PERFORMER "Fhoi Myore"
    INDEX 01 45:30:57

    Лог проверки качества

    -----------------------
    DON'T MODIFY THIS FILE
    -----------------------
    PERFORMER: auCDtect Task Manager, ver. 1.5.1RC4 build 1.5.1.5
    Copyright (c) 2008-2010 y-soft. All rights reserved
    http://y-soft.org
    ANALYZER: auCDtect: CD records authenticity detector, version 0.8.2
    Copyright (c) 2004 Oleg Berngardt. All rights reserved.
    Copyright (c) 2004 Alexander Djourik. All rights reserved.
    FILE: Fhoi Myore - Fhoi Myore.flac
    Size: 372044731 Hash: AF3D77514229E36F95993AD086EA7D73 Accuracy: -m0
    Conclusion: CDDA 100%
    Signature: E397C25E244F65FD3B35E5B6CB1C05DD2FF63BEA

    Скриншот спектра частот

    Об исполнителе (группе)

    http://www.metal-archives.com/bands/Fhoi_Myore/3540279380

    Состав

    Kerennos - Bass
    Balahr - Guitars
    Sreng - Vocals
    Bress - Drums (2010-present)

    Back

    Скачать .torrent

    Скачать торрент-файл бесплатно и на максимальной скорости!

    Как скачивать? · Что такое торрент? · Рейтинг и ограничения

    !ВНИМАНИЕ!
    Сайт не распространяет и не хранит электронные версии произведений, а занимается лишь лишь предоставлением доступа к создаваемому пользователями каталогу ссылок на торрент-файлы, которые содержат только списки хеш-сумм, убедительная просьба с жалобами обращаться напрямую к пользователю. Файлы для обмена на трекере предоставлены пользователями сайта, и администрация не несёт ответственности за их содержание. Просьба не заливать файлы, защищенные авторскими правами, а также файлы нелегального содержания!

    [Профиль] [ЛС]
    Показать сообщения:    
    Ответить на тему

    Текущее время: Сегодня, в 18:42

    Часовой пояс: GMT + 2



    Вы не можете начинать темы
    Вы не можете отвечать на сообщения
    Вы не можете редактировать свои сообщения
    Вы не можете удалять свои сообщения
    Вы не можете голосовать в опросах
    Вы не можете прикреплять файлы к сообщениям
    Вы не можете скачивать файлы