BitTorrentTracker PerecTracker.org
BitTorrentTracker PerecTracker.org
    
Регистрация  ·  Вход
 
 · 
Забыли пароль?

  • Марсианин / The Martian (Ридли Скотт / Ridley Scott) [2015 г., США, Великобритания, фантастика, приключения, BDRip] Dub + Ukr + Original Eng + Sub (Rus, Ukr, Eng)

    Ответить на тему
     
    Автор Сообщение

    rechyn

    Создавать темы 13-Янв-2016 11:18

           

    [Цитировать]

    -Марсианин / The Martian«Верните его домой»Страна: США, Великобритания
    Студия: 20th Century Fox Film Corporation, Genre Films, International Traders, Mid Atlantic Films, Scott Free Productions, TSG Entertainment
    Жанр: фантастика, приключения
    Год выпуска: 2015
    Продолжительность: 02:21:37-Перевод: Профессиональный (полное дублирование) BD EUR
    Оригинальная аудиодорожка: английская
    Cубтитры: русские, украинские, английские
    Режиссер: Ридли Скотт / Ridley Scott
    В ролях: Мэтт Дэймон, Джессика Честейн, Чиветель Эджиофор, Кристен Уиг, Джефф Дэниелс, Майкл Пенья, Шон Бин, Кейт Мара, Себастьян Стэн, Аксель Хенни
    Описание: Марсианская миссия «Арес-3» в процессе работы была вынуждена экстренно покинуть планету из-за надвигающейся песчаной бури. Инженер и биолог Марк Уотни получил повреждение скафандра во время песчаной бури. Сотрудники миссии, посчитав его погибшим, эвакуировались с планеты, оставив Марка одного.
    Очнувшись, Уотни обнаруживает, что связь с Землёй отсутствует, но при этом полностью функционирует жилой модуль. Главный герой начинает искать способ продержаться на имеющихся запасах еды, витаминов, воды и воздуха ещё 4 года до прилёта следующей миссии «Арес-4».-
    Сэмпл: скачать-Релиз от -
    Автор рипа: Elheym
    Качество: BDRip (источник: / Blu-ray Remux [THE_MARTIAN_REMUX_HDCLUB] / 1080p)
    Контейнер: AVI
    Видео: 720x304 (2.37:1), 23.976 fps, XviD build 67 ~1749 kbps avg, 0.33 bit/pixel
    Аудио #1: Русский: AC3, 5.1, 48 kHz, ~448 Кбит/с | Профессиональный (полное дублирование), BD EUR |
    Аудио #2: Украинский: AC3, 5.1, 48 kHz, ~448 Кбит/с | Профессиональный (полное дублирование) BD EUR | (отдельно, в составе раздачи)
    Аудио #3: Английский: AC3, 5.1, 48 kHz, ~448 Кбит/с | Оригинал | (отдельно, в составе раздачи)
    Субтитры: русские (полные: BD, iTunes, Dais; форсированные), украинские (полные: BD, iTunes; форсированные), английские (полные, SDH, SDH цветные: х3; форсированные)
    Размер: 2233.36 Mb (1/2 DVD)

    MediaInfo

    Полное имя : Marsianin.2015.RUS.BDRip.XviD.AC3.-HQCLUB.avi
    Формат : AVI
    Формат/Информация : Audio Video Interleave
    Профиль формата : OpenDML
    Размер файла : 2,18 Гбайт
    Продолжительность : 2 ч. 21 м.
    Общий поток : 2205 Кбит/сек
    Название фильма : Марсианин / The Martian (2015) BDRip
    Режиссёр : Elheym
    Программа кодирования : VirtualDubMod 1.5.10.2 (build 2540/release)
    Авторское право : HQCLUB
    Примечание : 12.01.2016
    Видео
    Идентификатор : 0
    Формат : MPEG-4 Visual
    Профиль формата : Advanced Simple@L5
    Параметр BVOP формата : 1
    Параметр QPel формата : Нет
    Параметр GMC формата : Без точки перехода
    Параметр матрицы формата : Выборочная
    Идентификатор кодека : XVID
    Идентификатор кодека/Подсказка : XviD
    Продолжительность : 2 ч. 21 м.
    Битрейт : 1745 Кбит/сек
    Ширина : 720 пикселей
    Высота : 304 пикселя
    Соотношение сторон : 2,35:1
    Частота кадров : 23,976 (24000/1001) кадра/сек
    Цветовое пространство : YUV
    Субдискретизация насыщенности : 4:2:0
    Битовая глубина : 8 бит
    Тип развёртки : Прогрессивная
    Метод сжатия : С потерями
    Бит/(Пиксели*Кадры) : 0.332
    Размер потока : 1,73 Гбайт (79%)
    Библиотека кодирования : XviD 67
    Аудио
    Идентификатор : 1
    Формат : AC-3
    Формат/Информация : Audio Coding 3
    Расширение режима : CM (complete main)
    Параметр Endianness формата : Big
    Идентификатор кодека : 2000
    Продолжительность : 2 ч. 21 м.
    Вид битрейта : Постоянный
    Битрейт : 448 Кбит/сек
    Каналы : 6 каналов
    Расположение каналов : Front: L C R, Side: L R, LFE
    Частота : 48,0 КГц
    Частота кадров : 31,250 кадров/сек (1536 spf)
    Метод сжатия : С потерями
    Размер потока : 454 Мбайт (20%)
    Выравнивание : Разделение по промежуткам
    Продолжительность промежутка : 42 мс. (1,00 видеокадр)
    Время предзагрузки промежутка : 500 мс.

    Скриншоты

    Цитата:
    Цитата:

    За дополнительные субтитры спасибо - subsvin2
    Скачать .torrent

    Скачать торрент-файл бесплатно и на максимальной скорости!

    Как скачивать? · Что такое торрент? · Рейтинг и ограничения

    !ВНИМАНИЕ!
    Сайт не распространяет и не хранит электронные версии произведений, а занимается лишь лишь предоставлением доступа к создаваемому пользователями каталогу ссылок на торрент-файлы, которые содержат только списки хеш-сумм, убедительная просьба с жалобами обращаться напрямую к пользователю. Файлы для обмена на трекере предоставлены пользователями сайта, и администрация не несёт ответственности за их содержание. Просьба не заливать файлы, защищенные авторскими правами, а также файлы нелегального содержания!


    _________________
    [Профиль] [ЛС]
    Показать сообщения:    
    Ответить на тему

    Текущее время: Сегодня, в 18:18

    Часовой пояс: GMT + 2



    Вы не можете начинать темы
    Вы не можете отвечать на сообщения
    Вы не можете редактировать свои сообщения
    Вы не можете удалять свои сообщения
    Вы не можете голосовать в опросах
    Вы не можете прикреплять файлы к сообщениям
    Вы не можете скачивать файлы