Register  ·  Log in
Forgot password?

  • Песок / The Sand (Исаак Габаефф / Isaac Gabaeff) [2015, США, Ужасы, фантастика, HDRip] VO (Хихикающий доктор)

    Reply to topic
    Author Message


    Post 13-Jan-2016 12:18



    Песок / The Sand

    «This Beach is Killer»
    Страна: США
    Жанр: Ужасы, фантастика
    Год выпуска: 2015
    Продолжительность: 01:24:09-Перевод: Одноголосый закадровый (Хихикающий доктор)
    Cубтитры: нет-Режиссер: Исаак Габаефф / Isaac Gabaeff-В ролях: Брук Батлер, Джейми Кеннеди, Митчел Муссо, Дин Гейер, Мэган Холдер, Клео Берри, Синтия Марелл, Гектор Дэвид мл., Никки Ли, Брайан Бун-Описание: После ночной вечеринки, студентики просыпаются утром на пляже, песок которого начинает их засасывать.-Сэмпл:Качество видео: HDRip
    Формат видео: AVI
    Видео: 720x304 (2.35:1), 23.976 fps, XviD build 66, 1929 Kbps
    Аудио: 48.0 kHz, AC3 Dolby Digital, 6 ch, 384 Kbps-


    Complete name : Pesok.2015.L1.HDRip.avi
    Format : AVI
    Format/Info : Audio Video Interleave
    File size : 1.37 GiB
    Duration : 1h 24mn
    Overall bit rate : 2 322 Kbps
    Writing application : VirtualDubMod | || (build 2550/release)
    Writing library : VirtualDubMod build 2550/release
    Video #0
    ID : 0
    Format : MPEG-4 Visual
    Format profile : Advanced Simple@L5
    Format settings, BVOP : 2
    Format settings, QPel : No
    Format settings, GMC : No warppoints
    Format settings, Matrix : Default (H.263)
    Codec ID : XVID
    Codec ID/Hint : XviD
    Duration : 1h 24mn
    Bit rate : 1 929 Kbps
    Width : 720 pixels
    Height : 304 pixels
    Display aspect ratio : 2.35:1
    Frame rate : 23.976 fps
    Color space : YUV
    Chroma subsampling : 4:2:0
    Bit depth : 8 bits
    Scan type : Progressive
    Compression mode : Lossy
    Bits/(Pixel*Frame) : 0.368
    Stream size : 1.13 GiB (83%)
    Writing library : XviD 66
    Audio #1
    ID : 1
    Format : AC-3
    Format/Info : Audio Coding 3
    Mode extension : CM (complete main)
    Format settings, Endianness : Big
    Codec ID : 2000
    Duration : 1h 24mn
    Bit rate mode : Constant
    Bit rate : 384 Kbps
    Channel(s) : 6 channels
    Channel positions : Front: L C R, Side: L R, LFE
    Sampling rate : 48.0 KHz
    Bit depth : 16 bits
    Compression mode : Lossy
    Stream size : 231 MiB (17%)
    Alignment : Split accross interleaves
    Interleave, duration : 42 ms (1.00 video frame)
    Interleave, preload duration : 500 ms

    Скриншот c названием фильма


    Download .torrent

    Download free and at maximum speed!

    How to Download? · What is a torrent? · Ratings and Limitations

    The site does not extend and does not store electronic(digital) versions of products, and only gives access to a reference catalogue created by users on torrent-files which contain only lists of the hash-sums, the earnest entreaty, with complaints(abuse) to access directly to the user. Files for an exchange on tracker are given by users of a site, and the administration does not bear the responsibility for their maintenance. The request to not fill in the files protected by copyrights, and also files of the illegal maintenance!

    [Profile] [PM]
    Display posts from previous:    
    Reply to topic

    The time now is: Today 19:06

    All times are GMT + 3 Hours

    You cannot post new topics in this forum
    You cannot reply to topics in this forum
    You cannot edit your posts in this forum
    You cannot delete your posts in this forum
    You cannot vote in polls in this forum
    You cannot attach files in this forum
    You cannot download files in this forum