BitTorrentTracker PerecTracker.org
BitTorrentTracker PerecTracker.org
    
Регистрация  ·  Вход
 
 · 
Забыли пароль?

  • Робби северный олень: Звёздный путь оленя / Robbie the Reindeer in Close Encounters of the Herd Kind (Донни Андерсон / Donnie Anderson) [2007, Великобритания, Комедия, пластилин, семейный, DVB] Dub

    Ответить на тему
     
    Автор Сообщение

    rechyn

    Создавать темы 12-Янв-2016 21:52

           

    [Цитировать]

    Робби северный олень : Звёздный путь оленя / Robbie the Reindeer in Close Encounters of the Herd Kind
    Страна: Великобритания
    Жанр: Комедия, пластилин, семейный
    Продолжительность: 00:28:59
    Год выпуска: 2007
    Перевод: Профессиональный (дублированный)
    Русские субтитры: нет
    Режиссёр: Донни Андерсон / Donnie Anderson
    Роли озвучивали: Ардал О’Хэнло, Джейн Хоррокc, Джиллиан Андерсон, Кира Найтли, Оззи Осборн, Майкл Пэйлин, Пол Уайтхаус, Шон Хьюз, Гарри Энфилд, Грэм Нортон, Расселл Брэнд, Шэйн Ричи, Росс Кемп
    Описание: День долгожданной свадьбы Робби и Доннер прерывается галактическим вторжением.
    Королеву злобных пришельцев интересует кристалл Нагатрона, случайно попавший в руки Робби...
    Доп. информация: Перевод названия этого мультика каналом "TiJi" у меня вызвал недоумение , так как ранее у него было совсем другое название - "Робби - северный олень: Близкие контакты третьей степени".
    Семпл: https://www.sendspace.com/file/g2hfql
    Качество: DVB
    Формат: MPG
    Видео: MPEG2, 704:576,(4:3),2896 Кбит/сек, 25,000 кадров/сек, (0.286 bit/pixel)
    Аудио: MP2, 192 Кбит/сек, 48,0 КГц, 2 канала
    Субтитры: Отсутствуют

    Подробные технические данные

    ОбщееПолное имя : Олененок Робби.mpgФормат : MPEG-PSРазмер файла : 654 МбайтПродолжительность : 28 м.Режим общего битрейта : ПеременныйОбщий поток : 3151 Кбит/сек
    ВидеоИдентификатор : 224 (0xE0)Формат : MPEG VideoВерсия формата : Version 2Профиль формата : Main@MainПараметр BVOP формата : ДаПараметр матрицы формата : ВыборочнаяПараметр GOP формата : VariableСтруктура изображения : FrameПродолжительность : 28 м.Вид битрейта : ПеременныйБитрейт : 2896 Кбит/секМаксимальный битрейт : 15,0 Мбит/секШирина : 704 пикселяВысота : 576 пикселейСоотношение сторон : 4:3Частота кадров : 25,000 кадров/секСтандарт вещания : PALЦветовое пространство : YUVСубдискретизация насыщенности : 4:2:0Битовая глубина : 8 битТип развёртки : ЧересстрочнаяПорядок развёртки : Верхнее поле первоеМетод сжатия : С потерямиБит/(Пиксели*Кадры) : 0.286Временной код первого кадра : 00:00:00:00Оригинал временного кода : Group of pictures headerGOP, открыто/закрыто : ОткрытоGOP, открыто/закрыто на первом кадре : ЗакрытоРазмер потока : 601 Мбайт (92%)
    АудиоИдентификатор : 192 (0xC0)Формат : MPEG AudioВерсия формата : Version 1Профиль формата : Layer 2Продолжительность : 28 м.Вид битрейта : ПостоянныйБитрейт : 192 Кбит/секКаналы : 2 каналаЧастота : 48,0 КГцМетод сжатия : С потерямиЗадержка видео : 1 мс.Размер потока : 39,8 Мбайт (6%)

    Скриншот c названием фильма

    Скриншоты

    Запись потока *.ts произведена тюнером цифрового телевидения. В связи с тем, что не все плееры воспроизводят поток *.ts (MPEG-TS) , в данном видеофайле мной был сделан ремукс потока *.ts (MPEG-TS) в *.mpg (MPEG-PS) программой VideoReDo.
    Скачать .torrent

    Скачать торрент-файл бесплатно и на максимальной скорости!

    Как скачивать? · Что такое торрент? · Рейтинг и ограничения

    !ВНИМАНИЕ!
    Сайт не распространяет и не хранит электронные версии произведений, а занимается лишь лишь предоставлением доступа к создаваемому пользователями каталогу ссылок на торрент-файлы, которые содержат только списки хеш-сумм, убедительная просьба с жалобами обращаться напрямую к пользователю. Файлы для обмена на трекере предоставлены пользователями сайта, и администрация не несёт ответственности за их содержание. Просьба не заливать файлы, защищенные авторскими правами, а также файлы нелегального содержания!


    _________________
    [Профиль] [ЛС]
    Показать сообщения:    
    Ответить на тему

    Текущее время: Сегодня, в 16:20

    Часовой пояс: GMT + 2



    Вы не можете начинать темы
    Вы не можете отвечать на сообщения
    Вы не можете редактировать свои сообщения
    Вы не можете удалять свои сообщения
    Вы не можете голосовать в опросах
    Вы не можете прикреплять файлы к сообщениям
    Вы не можете скачивать файлы