BitTorrentTracker PerecTracker.org
BitTorrentTracker PerecTracker.org
    
Регистрация  ·  Вход
 
 · 
Забыли пароль?

  • Бунт / Riot (Джон Лойд / John Lyde) [2015, США, боевик, HDRip] DVO

    Ответить на тему
     
    Автор Сообщение

    rechyn

    Создавать темы 12-Янв-2016 21:52

           

    [Цитировать]

    Бунт / Riot
    Выпущено:: США / Mainstay Productions, Matthew Reese Films, VMI Worldwide
    Жанр: Боевик
    Год выпуска: 2015
    Продолжительность: 01:23:56
    Перевод: Любительский (двухголосый закадровый)Cубтитры: нет
    Режиссер: Джон Лойд / John Lyde
    В ролях: Мэттью Рис, Дольф Лундгрен, Даниэль Чакран, Чак Лиделл, Рен Барнс, Дуй Бек, Никита Боголюбов, Барбара Кросс, Пит Дэй
    Описание: Джек Стоун целенаправленно организовывает ограбление банка, чтобы быть попасть в тюрьму к пресловутому российскому вору в законе, Баламу. Балам является больше, чем обычный преступник; он очень хитрый и опасный авторитет, который контролирует полицию из-за решетки. Он живет в за решеткой в качестве прикрытия для своей реальной власти. Его камера — это роскошная отдельная комната, которая создана специально для него и недоступна для большинства заключенных. Даже смотритель тюрьмы опасается, приближаясь к его камере. Тем не менее, даже в окружении своих верных приспешников и охранников, Балам не знает что Джек идет за ним, чтобы отомстить за убитую семью…

    Сэмпл: http://multi-up.com/1071167
    Качество видео: HDRip
    Формат видео: AVI
    Видео: XviD, 720x400, (16:9), 25.000fps, 1938kbps
    Аудио: AC-3, 48.0kHz, 384kbps, 2ch

    MediaInfo

    D:\ÇÀÊÀ×ÊÀ\Bunt.2015.HDRip.avi
    General
    Complete name : D:\ÇÀÊÀ×ÊÀ\Bunt.2015.HDRip.avi
    Format : AVI
    Format/Info : Audio Video Interleave
    File size : 1.37 GiB
    Duration : 1h 23mn
    Overall bit rate : 2 333 Kbps
    Writing application : VirtualDubMod 1.5.10.3 | www.virtualdub-fr.org || (build 2550/release)
    Writing library : VirtualDubMod build 2550/release
    Video #0
    ID : 0
    Format : MPEG-4 Visual
    Format profile : Advanced Simple@L5
    Format settings, BVOP : 2
    Format settings, QPel : No
    Format settings, GMC : No warppoints
    Format settings, Matrix : Default (MPEG)
    Codec ID : XVID
    Codec ID/Hint : XviD
    Duration : 1h 23mn
    Bit rate : 1 939 Kbps
    Width : 720 pixels
    Height : 400 pixels
    Display aspect ratio : 16:9
    Frame rate : 25.000 fps
    Color space : YUV
    Chroma subsampling : 4:2:0
    Bit depth : 8 bits
    Scan type : Progressive
    Compression mode : Lossy
    Bits/(Pixel*Frame) : 0.269
    Stream size : 1.14 GiB (83%)
    Writing library : XviD 1.2.1 (UTC 2008-12-04)
    Audio #1
    ID : 1
    Format : AC-3
    Format/Info : Audio Coding 3
    Mode extension : CM (complete main)
    Codec ID : 2000
    Duration : 1h 23mn
    Bit rate mode : Constant
    Bit rate : 384 Kbps
    Channel(s) : 2 channels
    Channel positions : Front: L R
    Sampling rate : 48.0 KHz
    Bit depth : 16 bits
    Compression mode : Lossy
    Stream size : 231 MiB (16%)
    Alignment : Split accross interleaves
    Interleave, duration : 40 ms (1.00 video frame)
    Interleave, preload duration : 500 ms

    Скриншоты

    Скриншот названия

    Скачать .torrent

    Скачать торрент-файл бесплатно и на максимальной скорости!

    Как скачивать? · Что такое торрент? · Рейтинг и ограничения

    !ВНИМАНИЕ!
    Сайт не распространяет и не хранит электронные версии произведений, а занимается лишь лишь предоставлением доступа к создаваемому пользователями каталогу ссылок на торрент-файлы, которые содержат только списки хеш-сумм, убедительная просьба с жалобами обращаться напрямую к пользователю. Файлы для обмена на трекере предоставлены пользователями сайта, и администрация не несёт ответственности за их содержание. Просьба не заливать файлы, защищенные авторскими правами, а также файлы нелегального содержания!


    _________________
    [Профиль] [ЛС]
    Показать сообщения:    
    Ответить на тему

    Текущее время: Сегодня, в 08:02

    Часовой пояс: GMT + 2



    Вы не можете начинать темы
    Вы не можете отвечать на сообщения
    Вы не можете редактировать свои сообщения
    Вы не можете удалять свои сообщения
    Вы не можете голосовать в опросах
    Вы не можете прикреплять файлы к сообщениям
    Вы не можете скачивать файлы