BitTorrentTracker PerecTracker.org
BitTorrentTracker PerecTracker.org
    
Регистрация  ·  Вход
 
 · 
Забыли пароль?

  • Игра на вылет / Серии: 1-16 из 16 (Евгений Паламарчук) [2015, Психологическая драма, WEBRip]

    Ответить на тему
     
    Автор Сообщение

    rechyn

    Создавать темы 12-Янв-2016 21:22

           

    [Цитировать]

    Игра на вылет
    Год выпуска: 2015
    Производство: 7 канал, Казахстан
    Жанр: Психологическая драма
    Продолжительность: от 00:43:00 до 00:55:00 серия
    Субтитры: Нет
    Режиссёр: Вирджиниа Возгиморукиан, Азиз Бейшеналиев
    В ролях: Азиз Бейшеналиев, Жан Байжанбаев, Дмитрий Скирта, Ольга Ландина, Гульнара Дусматова, Инкар Рулас, Азат Сейтметов, Алма Рулас, Жанар Макашева, Ольга Коржева, Кунсулу Шаяхметова, Сергей Уфимцев, Меруерт Утекешева, Мурат Нурасилов, Тимур Макажанов, Ерболат Оспанкулов, Айтжан Мукатаев, Едыге Абдрахман, Лукас Ренард, Жасулан Копберген, Адиль Есиркегенов, Алибек Адикен, Арман Касымбеков, Эдуард Малинка
    Описание: Сюжетная линия сериала строится вокруг экспериментального проекта акимата - создания подростковой футбольной команды, собранной в специализированном интернате из талантливых в спортивном отношении воспитанников детских домов Алма-Аты. Главный герой - работник государственной службы, ставит своей целью запустить республиканскую программу по привлечению воспитанников детских домов в профессиональный спорт. Для обоснования такого решения создается юношеская футбольная команда, состоящая из талантливых детей-сирот. Главная задача маленьких героев этой истории – показать всем своё стремление к победе, завоевав призовое место в чемпионате. Но на пути к победе, пока ещё не готовым к реальной жизни детям, приходится проходить через многие трудности, совершать ошибки и, конечно, терпеть поражения. Лишь настоящий, бескомпромиссный спорт и опытная команда благородных наставников сумеют научить неокрепших детей с гордостью смотреть жизни в глаза и приносить настоящие победы своей стране. В сериале затронуто 2 основных посыла: первое - это проблема детей, которых взрослые оставляют в детских домах. Вторая - то, что в любом возрасте человек не только сталкивается с жизненными проблемами и трудностями, но и имеет возможность для их преодоления, для чего ему необходимо пересмотреть многое в своём отношении к себе и к жизни, иметь достаточно мужества и ответственности для того, чтобы сделать выбор в своей жизни и придерживаться именно его.-Доп. информация: Реклама отсутствует!-Все раздачи сериала: http://perectracker.org/tracker.php?f=41&nm=Игра%на%вылет
    Сэмпл: https://mega.nz/#!E59EgIyQ!El-ny-LkoBwsoLrIaN5n0L41hYMtyvVxbp67XUH9q8k
    Качество: WEBRip
    Формат: AVI
    Видео кодек: XviD
    Аудио кодек: MP3
    Видео: 720x400, 25 fps, XviD, ~1550 kbps, 0.229 bit/pixel
    Аудио: 44.1 kHz, MPEG Layer 3, 2 ch, 192 kbps

    MI

    Общее
    Полное имя : I:\001\Игра на вылет (2015-2016) WEB-DLRip\Игра на вылет.(06.seriya).2015.XviD.WEB-DLRip.by.simka.avi
    Формат : AVI
    Формат/Информация : Audio Video Interleave
    Размер файла : 651 Мбайт
    Продолжительность : 53 м.
    Общий поток : 1710 Кбит/сек
    Программа кодирования : VirtualDubMod 1.5.10.3 | www.virtualdub-fr.org || (build 2550/release)
    Библиотека кодирования : VirtualDubMod build 2550/release
    Видео
    Идентификатор : 0
    Формат : MPEG-4 Visual
    Профиль формата : Advanced Simple@L5
    Параметр BVOP формата : 1
    Параметр QPel формата : Нет
    Параметр GMC формата : Без точки перехода
    Параметр матрицы формата : Default (MPEG)
    Идентификатор кодека : XVID
    Идентификатор кодека/Подсказка : XviD
    Продолжительность : 53 м.
    Битрейт : 1508 Кбит/сек
    Ширина : 720 пикселей
    Высота : 400 пикселей
    Соотношение сторон : 16:9
    Частота кадров : 25,000 кадров/сек
    Цветовое пространство : YUV
    Субдискретизация насыщенности : 4:2:0
    Битовая глубина : 8 бит
    Тип развёртки : Прогрессивная
    Метод сжатия : С потерями
    Бит/(Пиксели*Кадры) : 0.209
    Размер потока : 574 Мбайт (88%)
    Библиотека кодирования : XviD 1.2.1 (UTC 2008-12-04)
    Аудио
    Идентификатор : 1
    Формат : MPEG Audio
    Версия формата : Version 1
    Профиль формата : Layer 3
    Режим : Joint stereo
    Расширение режима : MS Stereo
    Идентификатор кодека : 55
    Идентификатор кодека/Подсказка : MP3
    Продолжительность : 53 м.
    Вид битрейта : Постоянный
    Битрейт : 192 Кбит/сек
    Каналы : 2 канала
    Частота : 44,1 КГц
    Метод сжатия : С потерями
    Размер потока : 73,1 Мбайт (11%)
    Выравнивание : Разделение по промежуткам
    Продолжительность промежутка : 40 мс. (1,00 видеокадр)
    Время предзагрузки промежутка : 500 мс.
    Библиотека кодирования : LAME3.99r
    Настройки программы : -m j -V 4 -q 2 -lowpass 18.6 -b 192

    Скриншоты

    Скачать .torrent

    Скачать торрент-файл бесплатно и на максимальной скорости!

    Как скачивать? · Что такое торрент? · Рейтинг и ограничения

    !ВНИМАНИЕ!
    Сайт не распространяет и не хранит электронные версии произведений, а занимается лишь лишь предоставлением доступа к создаваемому пользователями каталогу ссылок на торрент-файлы, которые содержат только списки хеш-сумм, убедительная просьба с жалобами обращаться напрямую к пользователю. Файлы для обмена на трекере предоставлены пользователями сайта, и администрация не несёт ответственности за их содержание. Просьба не заливать файлы, защищенные авторскими правами, а также файлы нелегального содержания!


    _________________
    [Профиль] [ЛС]
    Показать сообщения:    
    Ответить на тему

    Текущее время: Сегодня, в 04:01

    Часовой пояс: GMT + 2



    Вы не можете начинать темы
    Вы не можете отвечать на сообщения
    Вы не можете редактировать свои сообщения
    Вы не можете удалять свои сообщения
    Вы не можете голосовать в опросах
    Вы не можете прикреплять файлы к сообщениям
    Вы не можете скачивать файлы