BitTorrentTracker PerecTracker.org
BitTorrentTracker PerecTracker.org
    
Регистрация  ·  Вход
 
 · 
Забыли пароль?

  • Такая работа / сезон: 1 Серии: 1-49 из 49 (Владимир Койфман, Наталия Бучнева, Илья Шеховцов) [2014, Детектив, криминал, WEBRip]

    Ответить на тему
     
    Автор Сообщение

    rechyn

    Создавать темы 12-Янв-2016 20:51

           

    [Цитировать]

    Такая работаяГод выпуска: 2014
    Производство: РоссияООО "Анима Фильм Компани", Всемирные Русские Студии
    Жанр: Детектив, криминал
    Продолжительность: ~ 00:39:00
    Субтитры: нет
    Режиссёр: Владимир Койфман, Наталия Бучнева, Илья Шеховцов
    В ролях: Александр Саюталин, Оксана Базилевич, Дмитрий Паламарчук, Максим Меркулов (II), Алексей Митин, Ирина Шеянова, Антон Мамин, Егор Петренко, Нина Приселкова, Олег Чугунов, Арина Иванова, Иван Патраман, Никита Рогов, Ольга Урлапова, Дмитрий Олейник, Андрей Голубцов, Сергей Глазков (II), Диана Милютина, Александр Петров (III), Павел Демьянов, Анна Енжаева, Никита Маркеев, Наталья Иохвидова, Александр Большаков (II), Максимилиан Дядченко, Екатерина Рябова
    Описание: Команда молодых оперативников убойного отдела ГУВД — капитаны Филиппов, Лернер, Ильинский и старший лейтенант Стрельникова расследуют самые громкие преступления. Они молоды и амбициозны, и они сами выбрали ТАКУЮ РАБОТУ. Каждая серия — это новое дело, новый вызов и новая захватывающая история. Зрители проживут с героями сериала один год. Год, за который Филиппов, Лернер, Ильинский и Стрельникова превратятся из молодых оперативников в опытных профессионалов. Год, который многое изменит в их жизни, избавит от романтических иллюзий, заставит по-новому взглянуть на работу, которую они выбрали. Через год они станут другими людьми, но неизменным останется одно — их дружба и девиз мушкетеров: один за всех и все за одного.
    Все раздачи сериала: Такая работа
    Семпл
    Качество: WEBRip
    Формат: AVI
    Видео кодек: XviD
    Аудио кодек: АС-3
    Видео: 720x400 (1.80:1), 25 fps, XviD build 50 ~1550 kbps avg, 0.214 bit/pixel
    Аудио: 48 kHz, AC3 Dolby Digital, 2/0 (L,R) ch, ~192.00 kbps avg
    Сторонней рекламы нет!

    MediaInfo

    General
    Complete name : G:\Такая работа.2015.WEB-DLRip.RG.Russkie.serialy.&.Files-x.Такая работа.2015.WEB-DLRip.RG.Russkie.serialy.&.Files-x.avi
    Format : AVI
    Format/Info : Audio Video Interleave
    File size : 501 MiB
    Duration : 40mn 35s
    Overall bit rate : 1 726 Kbps
    Writing application : VirtualDubMod 1.5.10.3 | www.virtualdub-fr.org || (build 2550/release)
    Writing library : VirtualDubMod build 2550/release
    Video
    ID : 0
    Format : MPEG-4 Visual
    Format profile : Advanced Simple@L5
    Format settings, BVOP : 1
    Format settings, QPel : No
    Format settings, GMC : No warppoints
    Format settings, Matrix : Custom
    Codec ID : XVID
    Codec ID/Hint : XviD
    Duration : 40mn 35s
    Bit rate : 1 524 Kbps
    Width : 720 pixels
    Height : 400 pixels
    Display aspect ratio : 16:9
    Frame rate : 25.000 fps
    Color space : YUV
    Chroma subsampling : 4:2:0
    Bit depth : 8 bits
    Scan type : Progressive
    Compression mode : Lossy
    Bits/(Pixel*Frame) : 0.212
    Stream size : 442 MiB (88%)
    Writing library : XviD 73
    Audio
    ID : 1
    Format : AC-3
    Format/Info : Audio Coding 3
    Mode extension : CM (complete main)
    Format settings, Endianness : Big
    Codec ID : 2000
    Duration : 40mn 35s
    Bit rate mode : Constant
    Bit rate : 192 Kbps
    Channel(s) : 2 channels
    Channel positions : Front: L R
    Sampling rate : 48.0 KHz
    Compression mode : Lossy
    Stream size : 55.7 MiB (11%)
    Alignment : Split accross interleaves
    Interleave, duration : 40 ms (1.00 video frame)
    Interleave, preload duratio : 500 ms

    Скриншоты


    Скачать .torrent

    Скачать торрент-файл бесплатно и на максимальной скорости!

    Как скачивать? · Что такое торрент? · Рейтинг и ограничения

    !ВНИМАНИЕ!
    Сайт не распространяет и не хранит электронные версии произведений, а занимается лишь лишь предоставлением доступа к создаваемому пользователями каталогу ссылок на торрент-файлы, которые содержат только списки хеш-сумм, убедительная просьба с жалобами обращаться напрямую к пользователю. Файлы для обмена на трекере предоставлены пользователями сайта, и администрация не несёт ответственности за их содержание. Просьба не заливать файлы, защищенные авторскими правами, а также файлы нелегального содержания!


    _________________
    [Профиль] [ЛС]
    Показать сообщения:    
    Ответить на тему

    Текущее время: Сегодня, в 14:04

    Часовой пояс: GMT + 2



    Вы не можете начинать темы
    Вы не можете отвечать на сообщения
    Вы не можете редактировать свои сообщения
    Вы не можете удалять свои сообщения
    Вы не можете голосовать в опросах
    Вы не можете прикреплять файлы к сообщениям
    Вы не можете скачивать файлы