BitTorrentTracker PerecTracker.org
BitTorrentTracker PerecTracker.org
    
Регистрация  ·  Вход
 
 · 
Забыли пароль?

  • Ради любви, я всё смогу (Вечная любовь) / Серии: 1-60 из 60 (Баранов Евгений, Забара Игорь) [2015-2016, Мелодрама, SATRip]

    Ответить на тему
     
    Автор Сообщение

    rechyn

    Создавать темы 12-Янв-2016 20:45

           

    [Цитировать]

    Ради любви, я всё смогу! (Вечная любовь)
    Год выпуска: 2015-2016
    Производство: Accel Time Production, Телеканал "ИНТЕР" за форматом телеканала "SBS", Южная Корея.
    Жанр: Мелодрама
    Продолжительность: ~ 59 x ~ 00:48:00, 1 х 02:26:48
    Субтитры: Нет
    Режиссёр: Баранов Евгений, Забара Игорь
    В ролях: Кристина Казинская, Кирилл Дыцевич, Дмитрий Пчела, Юлия Майборода, Наталия Васько, Неонила Белецкая, Кирилл Козаков
    Описание: Для кого-то любовь - ответственность, для кого-то благословение или страдание, а для некоторых, любовь - просто инструмент для достижения личных целей. Но никто из них не ставит под сомнение великую силу любви, хотя многие даже не задумываются, что любовь может очень жестоко отомстить, когда не ждёшь. И она обязательно отомстит, если пренебрегать ею, использовать чувства других людей и не верить в её светлую силу. Но высшее благородство любви непостижимо - она даёт счастливый шанс даже тем, кто ненавидит её, тем, кто предал её и использовал.
    Очень симпатичная, но скромная студентка филфака - Мария Ильина, вынуждена временно оставить учебу в университете, чтобы заработать на учебу и помочь своей семье, которая оказалась в трудном финансовом положении. Мария берется за любую работу - утром заправляет авто на бензоколонке, а затем едет в недорогое кафе, где трудится официанткой.
    У отца Марии - Сан Саныча Ильина, начинаются серьезные проблемы со здоровьем - цирроз печени. Но он не обращает на это внимания, продолжая много работать, чтобы прокормить семью и спасти от банкротства турфирму, в которой он работает коммерческим директором. В больнице, где он оказывается, выясняется: ему нужна срочная пересадка печени, иначе дни Сан Саныча сочтены. Чтобы найти деньги на операцию отца Мария соглашается стать суррогатной матерью для семейства Городецких. Родив ребенка и пройдя множество испытаний, она все-таки найдет свою вечную любовь.
    -
    Доп. информация: Реклама отсутствует!
    -
    Все раздачи сериала: http://perectracker.org/tracker.php?f=9&nm=Р...0я%20всё%20смогу
    Сэмпл: https://yadi.sk/d/1n3ErDdNkXdKz
    Качество: SATRip
    Формат: AVI
    Видео кодек: XviD
    Аудио кодек: MP3
    Видео: 720x400, 25 fps, XviD, ~1500 kbps, 0.229 bit/pixel
    Аудио: 48 kHz, MPEG Layer 3, 2 ch, 192 kbps

    MI

    Общее
    Полное имя : U:\Сериалы (2015)\Ради любви я все смогу - Вечная любовь (2015)\Ради любви, Я все смогу (Вечная любовь).(03.seriya).2015.XviD.SATRip.by.simka.avi
    Формат : AVI
    Формат/Информация : Audio Video Interleave
    Размер файла : 584 Мбайт
    Продолжительность : 46 м.
    Общий поток : 1752 Кбит/сек
    Программа кодирования : VirtualDubMod 1.5.10.3 | www.virtualdub-fr.org || (build 2550/release)
    Библиотека кодирования : VirtualDubMod build 2550/release
    Видео
    Идентификатор : 0
    Формат : MPEG-4 Visual
    Профиль формата : Advanced Simple@L5
    Параметр BVOP формата : 1
    Параметр QPel формата : Нет
    Параметр GMC формата : Без точки перехода
    Параметр матрицы формата : Default (MPEG)
    Идентификатор кодека : XVID
    Идентификатор кодека/Подсказка : XviD
    Продолжительность : 46 м.
    Битрейт : 1550 Кбит/сек
    Ширина : 720 пикселей
    Высота : 400 пикселей
    Соотношение сторон : 16:9
    Частота кадров : 25,000 кадров/сек
    Цветовое пространство : YUV
    Субдискретизация насыщенности : 4:2:0
    Битовая глубина : 8 бит
    Тип развёртки : Прогрессивная
    Метод сжатия : С потерями
    Бит/(Пиксели*Кадры) : 0.215
    Размер потока : 517 Мбайт (88%)
    Библиотека кодирования : XviD 1.2.1 (UTC 2008-12-04)
    Аудио
    Идентификатор : 1
    Формат : MPEG Audio
    Версия формата : Version 1
    Профиль формата : Layer 3
    Режим : Joint stereo
    Расширение режима : MS Stereo
    Идентификатор кодека : 55
    Идентификатор кодека/Подсказка : MP3
    Продолжительность : 46 м.
    Вид битрейта : Постоянный
    Битрейт : 192 Кбит/сек
    Каналы : 2 канала
    Частота : 48,0 КГц
    Метод сжатия : С потерями
    Размер потока : 64,0 Мбайт (11%)
    Выравнивание : Соединение по промежуткам
    Продолжительность промежутка : 40 мс. (1,00 видеокадр)
    Время предзагрузки промежутка : 504 мс.
    Библиотека кодирования : LAME3.99r
    Настройки программы : -m j -V 4 -q 2 -lowpass 18.6 -b 192

    Скриншоты

    -------------

    Внимание! Раздача ведётся путём добавления новых выпусков

    При каждом добавлении создаётся новый торрент. Чтобы начать докачку нового выпуска, пользователям необходимо сделать следующее:
    ● остановить скачивание;
    ● удалить старый торрент у себя из клиента (старые выпуски удалять не надо);
    ● скачать новый торрент и запустить его у себя в клиенте вместо старого, при этом указать клиенту путь в старую папку куда и должно происходить скачивание новых выпусков;
    ● ваш клиент при запуске должен произвести хеширование (проверку) старой папки (если не производит сам - помогите ему сделать это), и будет докачивать только те выпуски, которых у вас ещё нет. Старые выпуски при этом не удаляются, а продолжают раздаваться!,
    ● Eсли вы уже удалили старые выпуски, то предотвратить повторную закачку старых выпусков можно, отжав галочку в соответсвующих местах при запуске нового торрента.
    Добавлена 60-я серия! - Большой финал сериала!
    Скачать .torrent

    Скачать торрент-файл бесплатно и на максимальной скорости!

    Как скачивать? · Что такое торрент? · Рейтинг и ограничения

    !ВНИМАНИЕ!
    Сайт не распространяет и не хранит электронные версии произведений, а занимается лишь лишь предоставлением доступа к создаваемому пользователями каталогу ссылок на торрент-файлы, которые содержат только списки хеш-сумм, убедительная просьба с жалобами обращаться напрямую к пользователю. Файлы для обмена на трекере предоставлены пользователями сайта, и администрация не несёт ответственности за их содержание. Просьба не заливать файлы, защищенные авторскими правами, а также файлы нелегального содержания!


    _________________
    [Профиль] [ЛС]
    Показать сообщения:    
    Ответить на тему

    Текущее время: Сегодня, в 20:47

    Часовой пояс: GMT + 2



    Вы не можете начинать темы
    Вы не можете отвечать на сообщения
    Вы не можете редактировать свои сообщения
    Вы не можете удалять свои сообщения
    Вы не можете голосовать в опросах
    Вы не можете прикреплять файлы к сообщениям
    Вы не можете скачивать файлы