BitTorrentTracker PerecTracker.org
BitTorrentTracker PerecTracker.org
    
Регистрация  ·  Вход
 
 · 
Забыли пароль?

  • Герои: Возрождение/ Heroes Reborn (Сезон 1,Серия 0-13 из 13) (Лариса Кондрацки, Грег Биман, Мэтт Шекман) [2015-2016 , Фэнтези, триллер, драма, фантастика , WEB-DLRip-AVC 1080p] [MVO] [LostFilm ]

    Ответить на тему
     
    Автор Сообщение

    Враг Нароода

    Создавать темы 12-Янв-2016 10:18

           

    [Цитировать]

    ---- Герои: Возрождение/ Heroes Reborn Сезон 1 Серия 0-13 из 13----Год выпуска:2015-2016
    Выпущено: США
    Жанр: Фэнтези, триллер, драма, фантастика
    Сезон: 1
    Серии: 0-13
    Количество серий в сезоне: 13
    Продолжительность:00:42:00
    Озвучка Профессиональный многоголосый -LostFilm
    Субтитры: :НЕТ--Сайт сериала:
    --Режиссер: Лариса Кондрацки, Грег Биман, Мэтт Шекман--Сценаристы:
    Тим Кринг
    --В ролях: Закари Левай (Люк Коллинз), Джудит Шекони (Джоанна Коллинз), Даника Ярош (Малина), Райан Гузман (Карлос Гутьеррес), Робби Кэй (Томми Кларк), Кики Сукзен (Мико Отомо), Гэтлин Грин (Эмили), Джек Коулмэн (Ной Беннет), Джимми Жан-Луи (Гаитянин), Кристин Роуз (Анджела Петрелли), Грег Гранберг (Мэтт Паркман), Сендхил Рамамерти (Мохиндер Суреш), Маси Ока (Хиро Накамура)--«Герои: Возрождение» — это новая фантастическая драма канала NBC, которая является своеобразной перезагрузкой популярного проекта «Герои», выходившего на экраны с 2006 по 2010 год. В свое время оригинальный сериал положил начало тенденции снимать телешоу о людях со сверхспособностями, которая впоследствии приобрела невероятные масштабы. К работе над Heroes Reborn вернулся создатель «Героев» Тим Кринг, а потому поклонники оригинала вполне могут рассчитывать на то, что продюсер и в новом проекте постарается сохранить незабываемую атмосферу Heroes. При этом «Возрождение» обещает стать вполне самостоятельным сериалом, который способен привлечь к просмотру не только давних фанатов вселенной, но и тех зрителей, которые с этим миром пока не знакомы. Сюжет: Год назад ужасный теракт в Одессе, штат Техас, практически уничтожил весь город. Виновниками произошедшей трагедии были признаны люди с экстраординарными способностями. Теперь они вынуждены скрываться и убегать от тех, кто мечтает воспользоваться их необычайными возможностями в собственных целях. Но каждый день в мире появляются новые герои, которые не знают, что им делать со своими удивительными талантами и пытаются жить, как раньше. Так, Люк и Джоанна одержимы личной вендеттой. Томми, как и любой подросток, мечтает завоевать сердце девушки своей мечты. Малина растет в любящей семье, где все ее холят и лелеют, веруя, что она рождена для свершения великих дел. Между тем в Токио Мико разыскивает пропавшего отца. Но наступает момент, когда новым героям приходится объединиться, чтобы противостоять вселенскому злу и спасти человечество. Неоценимую помощь в этом трудном деле им окажут уже знакомые зрителям Ной Беннет, Хиро Накамура, Мэтт Паркман и Мохиндер Суреш, готовые поделиться богатым опытом с молодым поколением.----Качество :WEB-DLRip-AVC 1080p
    Формат: MKV
    Видео кодек: H264
    Видео: 5305Кбит/сек,1920х1080(16.9),в 29.970кадр/сек,AVC(High@L4)(CABAC/2 Ref Frames)
    Аудио Кодек:AC3
    Аудио #1:AC3 , 384 Kbps, 48.0 KHz, 6 ch- -LostFilm
    Аудио #2: AC3, 384 Kbps, 48.0 KHz,6 ch - - English--

    Доп. информация:

    Звуковая дорожка сделана путем наложения чистого голоса озвучивателей на центральный канал оригинальной дорожки. Качество идентично звуковой дорожке.
    --

    Список эпизодов сезона


    00 Темные материи (Dark matters)
    01 О дивный новый мир (Brave New World)
    02 Одесса (Odessa)
    03 Под маской (Under the Mask)
    04 Ради общего блага (The Needs of the Many)
    05 Логово льва (The Lion's Den)
    06 Игра окончена (Game Over)
    07 13 июня. Часть первая (June 13th Part One)
    08 13 июня. Часть вторая (June 13th Part Two)
    09 Кровавое мороженое (Sundae, Bloody Sundae)
    10 11:53 по Одессе (11:53 to Odessa)
    11 Отправьте туда клонов (Send in the Clones)
    12 Преданная сотрудница (Company Woman)
    13 Проект Возрождение (Project Reborn)
    --

    MediaInfo сезона

    Общее
    Полное имя : E:\К ИНО\ФАНТАСТИКА\ГЕРОИ ВОЗРОЖДЕНИЕ\Heroes_Reborn_2015_S01_[LostFilm]_Н264_DD5.1_N.B_WEB-DLRip-AVC_1080p_Rus_Eng\Heroes_Reborn_2015_S01E00_RUS_ENG[LostFilm]_x264_N.B_WEB-DLRip-AVC_1080p.mkv
    Формат : Matroska
    Версия формата : Version 2
    Размер файла : 1,91 Гбайт
    Продолжительность : 44 м.
    Режим общего битрейта : Переменный
    Общий поток : 6196 Кбит/сек
    Программа кодирования : libmatroska 1.4.1
    Библиотека кодирования : SolveigMM Matroska Muxer Version 1.0.1502.18
    Видео
    Идентификатор : 1
    Формат : AVC
    Формат/Информация : Advanced Video Codec
    Профиль формата : High@L4
    Параметр CABAC формата : Да
    Параметр ReFrames формата : 2 кадра
    Параметр GOP формата : M=2, N=15
    Идентификатор кодека : V_MPEG4/ISO/AVC
    Продолжительность : 44 м.
    Вид битрейта : Переменный
    Битрейт : 5305 Кбит/сек
    Максимальный битрейт : 16,0 Мбит/сек
    Ширина : 1920 пикселей
    Высота : 1080 пикселей
    Соотношение сторон : 16:9
    Режим частоты кадров : Постоянный
    Частота кадров : 29,970 (30000/1001) кадров/сек
    Цветовое пространство : YUV
    Субдискретизация насыщенности : 4:2:0
    Битовая глубина : 8 бит
    Тип развёртки : Прогрессивная
    Бит/(Пиксели*Кадры) : 0.085
    Размер потока : 1,63 Гбайт (86%)
    Язык : English
    Default : Нет
    Forced : Нет
    Аудио #1
    Идентификатор : 2
    Формат : AC-3
    Формат/Информация : Audio Coding 3
    Расширение режима : CM (complete main)
    Параметр Endianness формата : Big
    Идентификатор кодека : A_AC3
    Продолжительность : 44 м.
    Вид битрейта : Постоянный
    Битрейт : 384 Кбит/сек
    Каналы : 6 каналов
    Расположение каналов : Front: L C R, Side: L R, LFE
    Частота : 48,0 КГц
    Частота кадров : 31,250 кадров/сек (1536 spf)
    Битовая глубина : bit0
    Метод сжатия : С потерями
    Размер потока : 121 Мбайт (6%)
    Default : Нет
    Forced : Нет
    Аудио #2
    Идентификатор : 3
    Формат : AC-3
    Формат/Информация : Audio Coding 3
    Расширение режима : CM (complete main)
    Параметр Endianness формата : Big
    Идентификатор кодека : A_AC3
    Продолжительность : 44 м.
    Вид битрейта : Постоянный
    Битрейт : 384 Кбит/сек
    Каналы : 6 каналов
    Расположение каналов : Front: L C R, Side: L R, LFE
    Частота : 48,0 КГц
    Частота кадров : 31,250 кадров/сек (1536 spf)
    Битовая глубина : bit0
    Метод сжатия : С потерями
    Размер потока : 121 Мбайт (6%)
    Default : Нет
    Forced : Нет
    --

    Скриншоты

    ----

    Как закачать отдельный файл

    1. Открыть торрент
    2. Снять галки с тех файлов торрента, которые мы не хотим закачивать. Оставляем только на нужных нам файлах (файле).
    3. Нажать О.К.
    В клиенте utorrent
    Инструкция
    1) Открыть торрент

    2) Снять галки с тех файлов торрента, которые мы не хотим закачивать:
    * либо вручную, снимая с каждого файла галку( скрин №1)
    * либо, нажав кнопку "Снять метки (Select None)", сняв сразу со всех файлов(скрин №2)
    №1

    №2

    Оставляем только на нужных нам файлах (файле).

    3)Нажать О.К
    ------Внимание!!! 25.01. 2016. РАЗДАЧА ОБНОВЛЕНА. ФИНАЛ СЕЗОНА .ОБНОВИТЕ ТОРЕНТ ФАЙЛ.ПРИЯТНОГО ПРОСМОТРА . --Релиз от: Nikolai.Baranov & PIRATIYA --------
    Скачать .torrent

    Скачать торрент-файл бесплатно и на максимальной скорости!

    Как скачивать? · Что такое торрент? · Рейтинг и ограничения

    !ВНИМАНИЕ!
    Сайт не распространяет и не хранит электронные версии произведений, а занимается лишь лишь предоставлением доступа к создаваемому пользователями каталогу ссылок на торрент-файлы, которые содержат только списки хеш-сумм, убедительная просьба с жалобами обращаться напрямую к пользователю. Файлы для обмена на трекере предоставлены пользователями сайта, и администрация не несёт ответственности за их содержание. Просьба не заливать файлы, защищенные авторскими правами, а также файлы нелегального содержания!


    _________________

    Легко быть оптимистом, когда судьба не валит с ног тяжелыми ударами, а лишь иногда легонько шлепает по заднице.
    [Профиль] [ЛС]

    -746

    Создавать темы 06-Мар-2016 13:40 (спустя 1 месяц 25 дней)

           

    Топик был перенесен из форума Зарубежные сериалы в форум Зарубежные сериалы (HD Video)


    -sasha2006

    _________________
    Как бы ты высоко не летал, не забывай, с кем ты ползал..
     
    Показать сообщения:    
    Ответить на тему

    Текущее время: Сегодня, в 10:42

    Часовой пояс: GMT + 2



    Вы не можете начинать темы
    Вы не можете отвечать на сообщения
    Вы не можете редактировать свои сообщения
    Вы не можете удалять свои сообщения
    Вы не можете голосовать в опросах
    Вы не можете прикреплять файлы к сообщениям
    Вы не можете скачивать файлы