Register  ·  Log in
Forgot password?

  • Жизнь с идиотом (Александр Рогожкин) [1993, Трагедия, драма, VHSRip]

    Reply to topic
    Author Message


    Post 12-Jan-2016 10:16



    Жизнь с идиотом
    Жанр: Трагедия, драма
    Год выпуска: 1993
    Продолжительность: 01:04:14
    Режиссёр: Александр Рогожкин
    В ролях: Анжелика Неволина, Александр Романцов, Виктор Хозяинов, Сергей Мигицко, Виктор Бычков
    Описание: Интеллигент-гуманист берет в свою семью идиота. Для него это не столько наказание, сколько новый род жизнедеятельности — своего рода миссия. Но жизнь с идиотом полна неожиданностей. Ни герой-интеллигент, ни его молодая жена, обожающая Пруста, не ожидали, какое обольщение насилием в облике буйнопомешанного их подстерегает…
    Доп. информация: Оцифровка VHS (личный архив) и получение VHSRip alenavova
    Эксклюзив для При размещении данного релиза на других сайтах ссылка на автора alenavova обязательна.

    Качество видео: VHSRip
    Формат видео: AVI
    Видео: 704x528 (1.33:1), 25 fps, XviD build 73 ~1432 kbps avg, 0.15 bit/pixel
    Аудио: 48 kHz, AC3 Dolby Digital, 2/0 (L,R) ch, ~192 kbps


    Жизнь с идиотом (by alenavova).avi
    Format : AVI
    Format/Info : Audio Video Interleave
    File size : 751 MiB
    Duration : 1h 4mn
    Overall bit rate : 1 634 Kbps
    Movie name : Жизнь с идиотом (Россия)
    Director : by alenavova
    Writing application : VirtualDubMod | || (build 2550/release)
    Copyright : Edich2
    Comment :
    ID : 0
    Format : MPEG-4 Visual
    Format profile : Advanced Simple@L5
    Format settings, BVOP : 1
    Format settings, QPel : No
    Format settings, GMC : No warppoints
    Format settings, Matrix : Default (MPEG)
    Codec ID : XVID
    Codec ID/Hint : XviD
    Duration : 1h 4mn
    Bit rate : 1 432 Kbps
    Width : 704 pixels
    Height : 528 pixels
    Display aspect ratio : 4:3
    Frame rate : 25.000 fps
    Color space : YUV
    Chroma subsampling : 4:2:0
    Bit depth : 8 bits
    Scan type : Progressive
    Compression mode : Lossy
    Bits/(Pixel*Frame) : 0.154
    Stream size : 658 MiB (88%)
    Writing library : XviD 73
    ID : 1
    Format : AC-3
    Format/Info : Audio Coding 3
    Mode extension : CM (complete main)
    Format settings, Endianness : Big
    Codec ID : 2000
    Duration : 1h 4mn
    Bit rate mode : Constant
    Bit rate : 192 Kbps
    Channel(s) : 2 channels
    Channel positions : Front: L R
    Sampling rate : 48.0 KHz
    Bit depth : 16 bits
    Compression mode : Lossy
    Stream size : 88.2 MiB (12%)
    Alignment : Split accross interleaves
    Interleave, duration : 40 ms (1.00 video frame)
    Interleave, preload duration : 500 ms


    Download .torrent

    Download free and at maximum speed!

    How to Download? · What is a torrent? · Ratings and Limitations

    The site does not extend and does not store electronic(digital) versions of products, and only gives access to a reference catalogue created by users on torrent-files which contain only lists of the hash-sums, the earnest entreaty, with complaints(abuse) to access directly to the user. Files for an exchange on tracker are given by users of a site, and the administration does not bear the responsibility for their maintenance. The request to not fill in the files protected by copyrights, and also files of the illegal maintenance!

    [Profile] [PM]
    Display posts from previous:    
    Reply to topic

    The time now is: Today 00:47

    All times are GMT + 3 Hours

    You cannot post new topics in this forum
    You cannot reply to topics in this forum
    You cannot edit your posts in this forum
    You cannot delete your posts in this forum
    You cannot vote in polls in this forum
    You cannot attach files in this forum
    You cannot download files in this forum