BitTorrentTracker PerecTracker.org
BitTorrentTracker PerecTracker.org
    
Регистрация  ·  Вход
 
 · 
Забыли пароль?

  • Прогулка по лесам / A Walk in the Woods (Кен Куопис / Ken Kwapis) [2015, США, драма, комедия, приключения, биография, HDRip] MVO (Паровоз Продакшн) + Org Eng

    Ответить на тему
     
    Автор Сообщение

    rechyn

    Создавать темы 12-Янв-2016 09:16

           

    [Цитировать]

    Прогулка по лесам / A Walk in the WoodsСтрана: США
    Жанр: драма, комедия, приключения, биография
    Год выпуска: 2015
    Продолжительность: 01:44:37
    Перевод: Любительский (многоголосый закадровый) Паровоз Продакшн
    Cубтитры: нет
    Оригинальная аудиодорожка: Английский
    Режиссер: Кен Куопис / Ken Kwapis
    В ролях: Роберт Редфорд, Ник Нолти, Эмма Томпсон, Мэри Стинберген, Ник Офферман, Кристен Шаал, Рэндолл Ньюсом, Хейли Ловитт, Линдс Эдвардс
    Описание: Проведя два десятилетия в Англии, писатель Билл Брайсон решает, что лучший способ вновь прочувствовать свою родину — это путешествие по следу аппалачей в компании своего старого друга, бывшего алкоголика.

    Качество видео: HDRip
    Формат видео: AVI
    Видео кодек: XviD
    Аудио кодек: AC3
    Видео: 720x304 (2.37:1), 23.976 fps, XviD build 66 ~1486 kbps avg, 0.28 bit/pixel
    Аудио#1: 48 kHz, AC3 Dolby Digital, 2/0 2 ch, ~192 kbps - Многоголоска
    Аудио#2: 48 kHz, AC3 Dolby Digital, 2/0 2 ch, ~192 kbps - Оригинал

    MediaInfo

    Complete name : Прогулка по лесам.avi
    Format : AVI
    Format/Info : Audio Video Interleave
    File size : 1.38 GiB
    Duration : 1h 44mn
    Overall bit rate : 1 884 Kbps
    Writing application : VirtualDubMod 1.5.10.3 | www.virtualdub-fr.org || (build 2550/release)
    Writing library : VirtualDubMod build 2550/release
    Video
    ID : 0
    Format : MPEG-4 Visual
    Format profile : Advanced Simple@L5
    Format settings, BVOP : 2
    Format settings, QPel : No
    Format settings, GMC : No warppoints
    Format settings, Matrix : Default (H.263)
    Codec ID : XVID
    Codec ID/Hint : XviD
    Duration : 1h 44mn
    Bit rate : 1 486 Kbps
    Width : 720 pixels
    Height : 304 pixels
    Display aspect ratio : 2.35:1
    Frame rate : 23.976 fps
    Color space : YUV
    Chroma subsampling : 4:2:0
    Bit depth : 8 bits
    Scan type : Progressive
    Compression mode : Lossy
    Bits/(Pixel*Frame) : 0.283
    Stream size : 1.09 GiB (79%)
    Writing library : XviD 66
    Audio #1
    ID : 1
    Format : AC-3
    Format/Info : Audio Coding 3
    Mode extension : CM (complete main)
    Format settings, Endianness : Big
    Codec ID : 2000
    Duration : 1h 44mn
    Bit rate mode : Constant
    Bit rate : 192 Kbps
    Channel(s) : 2 channels
    Channel positions : Front: L R
    Sampling rate : 48.0 KHz
    Compression mode : Lossy
    Stream size : 144 MiB (10%)
    Alignment : Split accross interleaves
    Interleave, duration : 42 ms (1.00 video frame)
    Interleave, preload duratio : 500 ms
    Title : Многоголоска
    Audio #2
    ID : 2
    Format : AC-3
    Format/Info : Audio Coding 3
    Mode extension : CM (complete main)
    Format settings, Endianness : Big
    Codec ID : 2000
    Duration : 1h 44mn
    Bit rate mode : Constant
    Bit rate : 192 Kbps
    Channel(s) : 2 channels
    Channel positions : Front: L R
    Sampling rate : 48.0 KHz
    Compression mode : Lossy
    Stream size : 144 MiB (10%)
    Alignment : Split accross interleaves
    Interleave, duration : 42 ms (1.00 video frame)
    Interleave, preload duratio : 500 ms
    Title : Оригинал

    Скриншоты

    Oтсутствует какая-либо реклама
    Скачать .torrent

    Скачать торрент-файл бесплатно и на максимальной скорости!

    Как скачивать? · Что такое торрент? · Рейтинг и ограничения

    !ВНИМАНИЕ!
    Сайт не распространяет и не хранит электронные версии произведений, а занимается лишь лишь предоставлением доступа к создаваемому пользователями каталогу ссылок на торрент-файлы, которые содержат только списки хеш-сумм, убедительная просьба с жалобами обращаться напрямую к пользователю. Файлы для обмена на трекере предоставлены пользователями сайта, и администрация не несёт ответственности за их содержание. Просьба не заливать файлы, защищенные авторскими правами, а также файлы нелегального содержания!


    _________________
    [Профиль] [ЛС]
    Показать сообщения:    
    Ответить на тему

    Текущее время: Сегодня, в 20:01

    Часовой пояс: GMT + 2



    Вы не можете начинать темы
    Вы не можете отвечать на сообщения
    Вы не можете редактировать свои сообщения
    Вы не можете удалять свои сообщения
    Вы не можете голосовать в опросах
    Вы не можете прикреплять файлы к сообщениям
    Вы не можете скачивать файлы