BitTorrentTracker PerecTracker.org
BitTorrentTracker PerecTracker.org
    
Регистрация  ·  Вход
 
 · 
Забыли пароль?

  • Дневник девочки-подростка / The Diary of a Teenage Girl (Мариэль Хеллер / Marielle Heller) [2015, США, драма, мелодрама, HDRip] DVO (Parovoz Production)

    Ответить на тему
     
    Автор Сообщение

    rechyn

    Создавать темы 12-Янв-2016 09:16

           

    [Цитировать]

    Дневник девочки-подростка / The Diary of a Teenage Girl
    Страна: США
    Жанр: драма, мелодрама
    Год выпуска: 2015
    Продолжительность: 01:42:08
    Перевод: Любительский (двухголосый закадровый) Parovoz Production
    Cубтитры: нет
    Оригинальная аудиодорожка: нет
    Режиссер: Мариэль Хеллер / Marielle Heller
    В ролях: Бел Паули, Вилли, Кристен Уиг, Эбби Уэйт, Александр Скарсгард, Миранда Бэйли, Карсон Д. Мелл, Джон Парсонс, Мэделин Уотерс, Остин Лион
    Описание: История девочки-подростка, живущей в Сан-Франциско в 70-е годы, которая завела интрижку с бойфрендом своей мамы...
    Берлинский кинофестиваль, 2015 год
    Победитель: Хрустальный медведь - Гран-при за лучший художественный фильм конкурса для юношества Поколение 14+
    Номинации: Хрустальный медведь - лучший художественный фильм конкурса для юношества Поколение 14+
    Сандэнс, 2015 год
    Победитель: Приз за операторскую работу в категории «Драматический фильм»
    Номинации: Гран-при в категории «Драматический фильм»

    Сэмпл: http://multi-up.com/1083770
    Качество видео: HDRip
    Формат видео: AVI
    Видео: 720x304 (2.37:1), 23.976 fps, XviD build 73 ~1731 kbps avg, 0.33 bit/pixel
    Аудио: 48 kHz, AC3 Dolby Digital, 2/0 (L,R) ch, ~192 kbps

    MediaInfo

    Общее
    Полное имя : D:\The.Diary.of.a.Teenage.Girl_2015.HDRip.avi
    Формат : AVI
    Формат/Информация : Audio Video Interleave
    Размер файла : 1,38 Гбайт
    Продолжительность : 1 ч. 42 м.
    Общий поток : 1933 Кбит/сек
    Программа кодирования : VirtualDubModRus 1.5.10.2 (build 2542/release)
    Библиотека кодирования : VirtualDubMod build 2542/release
    Видео
    Идентификатор : 0
    Формат : MPEG-4 Visual
    Профиль формата : Advanced Simple@L5
    Параметр BVOP формата : 1
    Параметр QPel формата : Нет
    Параметр GMC формата : Без точки перехода
    Параметр матрицы формата : Выборочная
    Идентификатор кодека : XVID
    Идентификатор кодека/Подсказка : XviD
    Продолжительность : 1 ч. 42 м.
    Битрейт : 1731 Кбит/сек
    Ширина : 720 пикселей
    Высота : 304 пикселя
    Соотношение сторон : 2,35:1
    Частота кадров : 23,976 кадра/сек
    Цветовое пространство : YUV
    Субдискретизация насыщенности : 4:2:0
    Битовая глубина : 8 бит
    Тип развёртки : Прогрессивная
    Метод сжатия : С потерями
    Бит/(Пиксели*Кадры) : 0.330
    Размер потока : 1,23 Гбайт (90%)
    Библиотека кодирования : XviD 73
    Аудио
    Идентификатор : 1
    Формат : AC-3
    Формат/Информация : Audio Coding 3
    Расширение режима : CM (complete main)
    Параметр Endianness формата : Big
    Идентификатор кодека : 2000
    Продолжительность : 1 ч. 42 м.
    Вид битрейта : Постоянный
    Битрейт : 192 Кбит/сек
    Каналы : 2 канала
    Расположение каналов : Front: L R
    Частота : 48,0 КГц
    Метод сжатия : С потерями
    Размер потока : 140 Мбайт (10%)
    Выравнивание : Разделение по промежуткам
    Продолжительность промежутка : 42 мс. (1,00 видеокадр)
    Время предзагрузки промежутка : 500 мс.

    Скриншот c названием фильма

    Скриншоты

    Скачать .torrent

    Скачать торрент-файл бесплатно и на максимальной скорости!

    Как скачивать? · Что такое торрент? · Рейтинг и ограничения

    !ВНИМАНИЕ!
    Сайт не распространяет и не хранит электронные версии произведений, а занимается лишь лишь предоставлением доступа к создаваемому пользователями каталогу ссылок на торрент-файлы, которые содержат только списки хеш-сумм, убедительная просьба с жалобами обращаться напрямую к пользователю. Файлы для обмена на трекере предоставлены пользователями сайта, и администрация не несёт ответственности за их содержание. Просьба не заливать файлы, защищенные авторскими правами, а также файлы нелегального содержания!


    _________________
    [Профиль] [ЛС]
    Показать сообщения:    
    Ответить на тему

    Текущее время: Сегодня, в 00:15

    Часовой пояс: GMT + 2



    Вы не можете начинать темы
    Вы не можете отвечать на сообщения
    Вы не можете редактировать свои сообщения
    Вы не можете удалять свои сообщения
    Вы не можете голосовать в опросах
    Вы не можете прикреплять файлы к сообщениям
    Вы не можете скачивать файлы