BitTorrentTracker PerecTracker.org
BitTorrentTracker PerecTracker.org
    
Регистрация  ·  Вход
 
 · 
Забыли пароль?

  • Визит / The Visit (М. Найт Шьямалан / M. Night Shyamalan) [2015, США, ужасы, триллер, BDRip 720p] Dub (BD CEE) + Sub Rus, Eng + Original Eng

    Ответить на тему
     
    Автор Сообщение

    Flirldrerve

    Создавать темы 12-Янв-2016 00:50

           

    [Цитировать]

    Визит / The Visit
      -Страна: США
      Жанр: ужасы, триллер
      Год выпуска: 2015
      Продолжительность: 01:33:54
        -Перевод: Профессиональный (дублированный) BD CEE
        Cубтитры: Английские, русские, украинские
        Оригинальная аудиодорожка: английский
          -Режиссер: М. Найт Шьямалан / M. Night Shyamalan
            -В ролях: Оливия ДеДжонг, Эд Оксенбульд, Дианна Данаган, Питер МакРобби, Кэтрин Хан, Селия Кинэн-Болджер, Самуэль Стриклен, Патрик Дарро, Хорхе Кордова, Стив Аннан
            Описание: Много лет назад она бежала из родительского дома без оглядки и с тех пор старалась не вспоминать события той самой ночи. Теперь у нее уже взрослые дети. Однажды они получают приглашения от бабушки и дедушки, которых никогда не видели прежде, и решают нанести им визит.
              -Релиз от:
                -Тип релиза: BDRip 720p
                Контейнер: MKV
                  -Видео: 1280x 694 (1.85:1), 23,976 fps, MPEG-4 AVC, ~ 5177 kbps
                    -Аудио 1: Russian: 48 kHz, DTS, 3/2 (L,C,R,l,r) + LFE ch, ~ 768.00 kbps avg
                    Аудио 2: English: 48 kHz, DTS, 3/3 (L,C,R,l,c,r) + LFE ch, ~1509.00 kbps avg

                    MediaInfo

                    General
                    Уникальный идентификатор : 237962300404654885950762359441087472682 (0xB305DF3B4A82038F90AB40AF9767242A)
                    Полное имя : D:\The.Visit.BDRip.720p.mkv
                    Формат : Matroska
                    Версия формата : Version 2
                    Размер файла : 5.00 GiB
                    Продолжительность : 1h 34mn
                    Общий поток : 7 605 Kbps
                    Дата кодирования : UTC 2016-01-08 18:58:49
                    Программа кодирования : mkvmerge v7.9.0 ('Birds') 64bit
                    Библиотека кодирования : libebml v1.3.1 + libmatroska v1.4.2
                    Video
                    Идентификатор : 1
                    Формат : AVC
                    Формат/Информация : Advanced Video Codec
                    Профиль формата : High@L4.1
                    Параметр CABAC формата : Yes
                    Параметр ReFrames формата : 9 frames
                    Идентификатор кодека : V_MPEG4/ISO/AVC
                    Продолжительность : 1h 34mn
                    Битрейт : 5 177 Kbps
                    Ширина : 1 280 pixels
                    Высота : 694 pixels
                    Соотношение сторон : 1.85:1
                    Режим частоты кадров : Constant
                    Частота кадров : 23.976 fps
                    Цветовое пространство : YUV
                    Субдискретизация насыщенности : 4:2:0
                    Битовая глубина : 8 bits
                    Тип развёртки : Progressive
                    Бит/(Пиксели*Кадры) : 0.243
                    Размер потока : 3.40 GiB (68%)
                    Библиотека кодирования : x264 core 148 r2638+53 bb29004 t_mod_Custom [8-bit@all X86_64]
                    Настройки программы : cabac=1 / ref=9 / deblock=1:-3:-3 / analyse=0x3:0x133 / me=umh / subme=11 / psy=1 / fade_compensate=0.00 / psy_rd=1.00:0.00 / mixed_ref=1 / me_range=48 / chroma_me=1 / trellis=2 / 8x8dct=1 / cqm=0 / deadzone=21,11 / fast_pskip=1 / chroma_qp_offset=-2 / threads=8 / lookahead_threads=1 / sliced_threads=0 / nr=0 / decimate=1 / interlaced=0 / bluray_compat=0 / constrained_intra=0 / fgo=0 / bframes=8 / b_pyramid=2 / b_adapt=2 / b_bias=0 / direct=3 / weightb=1 / open_gop=0 / weightp=2 / keyint=250 / keyint_min=23 / scenecut=40 / intra_refresh=0 / rc_lookahead=150 / rc=crf / mbtree=0 / crf=16.9000 / qcomp=0.60 / qpmin=0:0:0 / qpmax=69:69:69 / qpstep=4 / vbv_maxrate=50000 / vbv_bufsize=62500 / crf_max=0.0 / nal_hrd=none / filler=0 / ip_ratio=1.40 / pb_ratio=1.20 / aq=3:0.80 / aq-sensitivity=10.00 / aq-factor=1.00:1.00:1.00 / aq2=0 / aq3=0
                    Язык : English
                    Default : Yes
                    Forced : No
                    Audio #1
                    Идентификатор : 2
                    Формат : DTS
                    Формат/Информация : Digital Theater Systems
                    Режим : 16
                    Параметр Endianness формата : Big
                    Идентификатор кодека : A_DTS
                    Продолжительность : 1h 34mn
                    Вид битрейта : Constant
                    Битрейт : 768 Kbps
                    Каналы : 6 channels
                    Расположение каналов : Front: L C R, Side: L R, LFE
                    Частота : 48.0 KHz
                    Битовая глубина : 24 bits
                    Метод сжатия : Lossy
                    Размер потока : 517 MiB (10%)
                    Заголовок : BD_EUR
                    Язык : Russian
                    Default : Yes
                    Forced : No
                    Audio #2
                    Идентификатор : 3
                    Формат : DTS
                    Формат/Информация : Digital Theater Systems
                    Режим : 16
                    Параметр Endianness формата : Big
                    Идентификатор кодека : A_DTS
                    Продолжительность : 1h 34mn
                    Вид битрейта : Constant
                    Битрейт : 1 509 Kbps
                    Каналы : 6 channels
                    Расположение каналов : Front: L C R, Side: L R, LFE
                    Частота : 48.0 KHz
                    Битовая глубина : 24 bits
                    Метод сжатия : Lossy
                    Размер потока : 1 015 MiB (20%)
                    Язык : English
                    Default : No
                    Forced : No
                    Text #1
                    Идентификатор : 4
                    Формат : UTF-8
                    Идентификатор кодека : S_TEXT/UTF8
                    Идентификатор кодека/Информация : UTF-8 Plain Text
                    Заголовок : Forced
                    Язык : Russian
                    Default : Yes
                    Forced : No
                    Text #2
                    Идентификатор : 5
                    Формат : UTF-8
                    Идентификатор кодека : S_TEXT/UTF8
                    Идентификатор кодека/Информация : UTF-8 Plain Text
                    Заголовок : Full
                    Язык : Russian
                    Default : No
                    Forced : No
                    Text #3
                    Идентификатор : 6
                    Формат : UTF-8
                    Идентификатор кодека : S_TEXT/UTF8
                    Идентификатор кодека/Информация : UTF-8 Plain Text
                    Язык : Ukrainian
                    Default : No
                    Forced : No
                    Text #4
                    Идентификатор : 7
                    Формат : UTF-8
                    Идентификатор кодека : S_TEXT/UTF8
                    Идентификатор кодека/Информация : UTF-8 Plain Text
                    Язык : English
                    Default : No
                    Forced : No
                    Text #5
                    Идентификатор : 8
                    Формат : UTF-8
                    Идентификатор кодека : S_TEXT/UTF8
                    Идентификатор кодека/Информация : UTF-8 Plain Text
                    Заголовок : SDH
                    Язык : English
                    Default : No
                    Forced : No
                    Menu
                    00:00:00.000 : en:00:00:00.000
                    00:02:51.921 : en:00:02:51.921
                    00:06:38.356 : en:00:06:38.356
                    00:11:08.709 : en:00:11:08.709
                    00:17:11.947 : en:00:17:11.947
                    00:21:39.798 : en:00:21:39.798
                    00:25:45.752 : en:00:25:45.752
                    00:29:44.824 : en:00:29:44.824
                    00:34:24.854 : en:00:34:24.854
                    00:40:48.571 : en:00:40:48.571
                    00:44:42.012 : en:00:44:42.012
                    00:48:16.393 : en:00:48:16.393
                    00:52:34.734 : en:00:52:34.734
                    00:57:08.383 : en:00:57:08.383
                    01:00:54.108 : en:01:00:54.108
                    01:05:17.163 : en:01:05:17.163
                    01:09:08.185 : en:01:09:08.185
                    01:13:38.372 : en:01:13:38.372
                    01:23:58.908 : en:01:23:58.908
                    01:28:54.037 : en:01:28:54.037

                    Скриншоты

                    Скачать .torrent

                    Скачать торрент-файл бесплатно и на максимальной скорости!

                    Как скачивать? · Что такое торрент? · Рейтинг и ограничения

                    !ВНИМАНИЕ!
                    Сайт не распространяет и не хранит электронные версии произведений, а занимается лишь лишь предоставлением доступа к создаваемому пользователями каталогу ссылок на торрент-файлы, которые содержат только списки хеш-сумм, убедительная просьба с жалобами обращаться напрямую к пользователю. Файлы для обмена на трекере предоставлены пользователями сайта, и администрация не несёт ответственности за их содержание. Просьба не заливать файлы, защищенные авторскими правами, а также файлы нелегального содержания!


                    _________________
                    [Профиль] [ЛС]
                    Показать сообщения:    
                    Ответить на тему

                    Текущее время: Сегодня, в 14:38

                    Часовой пояс: GMT + 2



                    Вы не можете начинать темы
                    Вы не можете отвечать на сообщения
                    Вы не можете редактировать свои сообщения
                    Вы не можете удалять свои сообщения
                    Вы не можете голосовать в опросах
                    Вы не можете прикреплять файлы к сообщениям
                    Вы не можете скачивать файлы