BitTorrentTracker PerecTracker.org
BitTorrentTracker PerecTracker.org
    
Регистрация  ·  Вход
 
 · 
Забыли пароль?

  • Лиза-лиса / Liza the Fox-Fairy / Liza, a rókatündér (Карой Уй Месарош / Károly Ujj Mészáros) [2015, Венгрия, Фэнтези, мелодрама, комедия, BDRip-AVC] VO + Sub Eng + Original

    Ответить на тему
     
    Автор Сообщение

    rechyn

    Создавать темы 11-Янв-2016 20:38

           

    [Цитировать]

    Лиза-лиса
    Liza the Fox-Fairy | Liza, a rókatündér
    -Страна: Венгрия
    Жанр: Фэнтези, мелодрама, комедия
    Год выпуска: 2015
    Продолжительность: 01:37:51
    Перевод: Одноголосый закадровый
    Cубтитры: английские
    Оригинальная аудиодорожка: Hungary Отдельно
    Режиссер: Карой Уй Месарош / Károly Ujj Mészáros
    В ролях:
    Моника Бальшаи | Mónika Balsai
    Сабольч Беде Фазекаш, Дэвид Сакурай, Зольтан Шмид, Антал Черна, Пирошка Мольнар, Габор Ревицки, Марианн Кочиш, Аги Губик, Лехель Ковач-ОписаниеЛиза — милая работящая девушка, почти все свое время отдает уходу за парализованной старухой-астматичкой, а в свободные минуты читает японские романы и грезит о любви. Единственный друг Лизы — призрак покойной японской поп-звезды Томми Тани, парень очень верный, но и очень ревнивый. Делить внимание Лизы с кем-то другим — не по Томми. Его первой жертвой становится старая Марта — и это только начало...-Сэмпл

    IMDb: 7.80 (3526)
    Качество видео: BDRip-AVC Liza the Fox-Fairy 2015 1080p Blu-ray Remux AVC DTS-HD MA 5.1 - KRaLiMaRKo
    Формат видео: MKV
    Видео: AVC 2681 Kbps 1136 x 464 (2.448) 24.000 fps
    Аудио: AC-3 192 Kbps 2 channels, 48.0 KHz RUS VO
    Аудио 2: AC-3 448 Kbps 6 channels, 48.0 KHz Hungary Отдельно
    Формат субтитров: softsub (SRT)
    MediaInfo | Log

    Log

    x264 [info]: frame I:1224 Avg QP:14.43 size: 94446
    x264 [info]: frame P:25405 Avg QP:15.70 size: 33242
    x264 [info]: frame B:114314 Avg QP:17.57 size: 9182
    x264 [info]: consecutive B-frames: 1.4% 0.7% 3.1% 5.7% 8.7% 72.0% 3.0% 0.3% 2.6% 0.1% 0.3% 1.4% 0.7%
    x264 [info]: mb I I16..4: 9.7% 68.8% 21.5%
    x264 [info]: mb P I16..4: 0.3% 7.2% 0.6% P16..4: 28.1% 34.5% 19.5% 4.1% 0.5% skip: 5.2%
    x264 [info]: mb B I16..4: 0.0% 0.7% 0.0% B16..8: 27.2% 22.0% 6.5% direct: 5.8% skip:37.8% L0:43.7% L1:41.4% BI:14.9%
    x264 [info]: 8x8 transform intra:83.3% inter:45.4%
    x264 [info]: direct mvs spatial:99.9% temporal:0.1%
    x264 [info]: coded y,uvDC,uvAC intra: 97.1% 96.7% 92.1% inter: 22.6% 25.7% 14.8%
    x264 [info]: i16 v,h,dc,p: 15% 8% 26% 51%
    x264 [info]: i8 v,h,dc,ddl,ddr,vr,hd,vl,hu: 13% 9% 15% 8% 11% 11% 10% 11% 12%
    x264 [info]: i4 v,h,dc,ddl,ddr,vr,hd,vl,hu: 13% 10% 5% 9% 14% 13% 13% 11% 12%
    x264 [info]: i8c dc,h,v,p: 57% 14% 14% 14%
    x264 [info]: Weighted P-Frames: Y:2.0% UV:1.3%
    x264 [info]: ref P L0: 43.5% 8.5% 19.4% 6.4% 6.2% 3.8% 4.2% 2.0% 2.3% 1.6% 1.9% 0.1% 0.0%
    x264 [info]: ref B L0: 69.7% 12.7% 5.9% 3.4% 2.4% 2.1% 1.7% 1.2% 0.7% 0.4%
    x264 [info]: ref B L1: 93.0% 7.0%
    x264 [info]: kb/s:2737.82
    x264 [total]: encoded 140943 frames, 11.11 fps, 2737.82 kb/s, duration 3:31:25.95
    Format : Matroska
    Format version : Version 4 / Version 2
    File size : 2.00 GiB
    Duration : 1h 37mn
    Overall bit rate : 2 932 Kbps
    Encoded date : UTC 2016-01-11 11:39:48
    Writing application : mkvmerge v6.7.0 ('Back to the Ground') 32bit built on Jan 8 2014 15:03:17
    Writing library : libebml v1.3.0 + libmatroska v1.4.1
    Video
    ID : 1
    Format : AVC
    Format/Info : Advanced Video Codec
    Format profile : High@L4.1
    Format settings, CABAC : Yes
    Format settings, ReFrames : 11 frames
    Codec ID : V_MPEG4/ISO/AVC
    Duration : 1h 37mn
    Bit rate : 2 681 Kbps
    Width : 1 136 pixels
    Height : 464 pixels
    Display aspect ratio : 2.40:1
    Frame rate mode : Constant
    Frame rate : 24.000 fps
    Color space : YUV
    Chroma subsampling : 4:2:0
    Bit depth : 8 bits
    Scan type : Progressive
    Bits/(Pixel*Frame) : 0.212
    Stream size : 1.83 GiB (91%)
    Title : Liza the Fox-Fairy (2015) [perectracker.org]
    Writing library : x264 core 148 r2638kMod 7599210
    Encoding settings : cabac=1 / ref=11 / deblock=1:-2:-2 / analyse=0x3:0x133 / me=umh / subme=11 / psy=1 / fade_compensate=0.00 / psy_rd=1.00:0.05 / mixed_ref=1 / me_range=48 / chroma_me=1 / trellis=2 / 8x8dct=1 / cqm=0 / deadzone=21,11 / fast_pskip=0 / chroma_qp_offset=-3 / threads=12 / lookahead_threads=3 / sliced_threads=0 / nr=0 / decimate=1 / interlaced=0 / bluray_compat=0 / constrained_intra=0 / fgo=0 / bframes=12 / b_pyramid=2 / b_adapt=2 / b_bias=0 / direct=3 / weightb=1 / open_gop=0 / weightp=2 / keyint=250 / keyint_min=23 / scenecut=40 / intra_refresh=0 / rc_lookahead=60 / rc=crf / mbtree=0 / crf=17.1000 / qcomp=0.60 / qpmin=0 / qpmax=69 / qpstep=4 / vbv_maxrate=50000 / vbv_bufsize=62500 / crf_max=0.0 / nal_hrd=none / filler=0 / ip_ratio=1.40 / pb_ratio=1.30 / aq=3:0.90
    Language : Hungarian
    Default : Yes
    Forced : No
    Audio
    ID : 2
    Format : AC-3
    Format/Info : Audio Coding 3
    Mode extension : CM (complete main)
    Format settings, Endianness : Big
    Codec ID : A_AC3
    Duration : 1h 37mn
    Bit rate mode : Constant
    Bit rate : 192 Kbps
    Channel(s) : 2 channels
    Channel positions : Front: L R
    Sampling rate : 48.0 KHz
    Compression mode : Lossy
    Stream size : 134 MiB (7%)
    Title : VO
    Language : Russian
    Default : Yes
    Forced : No
    Text
    ID : 3
    Format : UTF-8
    Codec ID : S_TEXT/UTF8
    Codec ID/Info : UTF-8 Plain Text
    Title : Full
    Language : English
    Default : No
    Forced : No
    Menu
    00:00:00.000 : en:00:00:00.000
    00:11:57.417 : en:00:11:57.417
    00:24:40.292 : en:00:24:40.292
    00:37:51.625 : en:00:37:51.625
    00:50:34.292 : en:00:50:34.292
    01:00:59.917 : en:01:00:59.917
    01:14:37.083 : en:01:14:37.083
    01:19:51.542 : en:01:19:51.542

    Скриншоты




    Скачать .torrent

    Скачать торрент-файл бесплатно и на максимальной скорости!

    Как скачивать? · Что такое торрент? · Рейтинг и ограничения

    !ВНИМАНИЕ!
    Сайт не распространяет и не хранит электронные версии произведений, а занимается лишь лишь предоставлением доступа к создаваемому пользователями каталогу ссылок на торрент-файлы, которые содержат только списки хеш-сумм, убедительная просьба с жалобами обращаться напрямую к пользователю. Файлы для обмена на трекере предоставлены пользователями сайта, и администрация не несёт ответственности за их содержание. Просьба не заливать файлы, защищенные авторскими правами, а также файлы нелегального содержания!


    _________________
    [Профиль] [ЛС]
    Показать сообщения:    
    Ответить на тему

    Текущее время: Сегодня, в 02:45

    Часовой пояс: GMT + 2



    Вы не можете начинать темы
    Вы не можете отвечать на сообщения
    Вы не можете редактировать свои сообщения
    Вы не можете удалять свои сообщения
    Вы не можете голосовать в опросах
    Вы не можете прикреплять файлы к сообщениям
    Вы не можете скачивать файлы