Register  ·  Log in
Forgot password?

  • Дубравка (Радомир Василевский) [1967, детский фильм, DVB]

    Reply to topic
    Author Message


    Post 11-Jan-2016 17:26



    Жанр: детский фильм
    Год выпуска: 1967
    Продолжительность: 01:15:23
    Режиссёр: Радомир Василевский
    В ролях: Лина Бракните, Ниеле Викирайте, Виталий Фадеев, К.Усатов, Ольга Аникина, Георгий Слабиняк, Сережа Тихонов, Миша Черныш, Алла Витрук, Виктор Семеновский, Рональд Гравис, Нина Вильвовская, Ольга Семенова, Валерий Зубарев, Георгий Милляр, Лев Перфилов
    Описание: По мотивам рассказа Радия Погодина. Дубравка - это обычная девочка, с удивлением обнаружившая, что детство кончилось. Она выросла, но детские нотки проскальзывают во всех ее словах и поступках. Дубравка очень категорична и не готова прощать даже малейших слабостей. Но вот приходит первая любовь, и ее мир изменяется.
    Качество видео: DVB
    Формат видео: MPG
    Видео: MPEG2, 720x576, 4:3, 25.00fps, 4117 Kbps
    Аудио: MP2 2.0, 48 kHz, 192 kbps


    Complete name : Дубравка (1967) DVB.mpg
    Format : MPEG-PS
    File size : 2.32 GiB
    Duration : 1h 15mn
    Overall bit rate mode : Variable
    Overall bit rate : 4 397 Kbps
    ID : 224 (0xE0)
    Format : MPEG Video
    Format version : Version 2
    Format profile : Main@Main
    Format settings, BVOP : Yes
    Format settings, Matrix : Custom
    Format settings, GOP : Variable
    Format settings, picture structure : Frame
    Duration : 1h 15mn
    Bit rate mode : Variable
    Bit rate : 4 117 Kbps
    Maximum bit rate : 15.0 Mbps
    Width : 720 pixels
    Height : 576 pixels
    Display aspect ratio : 4:3
    Frame rate : 25.000 fps
    Standard : PAL
    Color space : YUV
    Chroma subsampling : 4:2:0
    Bit depth : 8 bits
    Scan type : Interlaced
    Scan order : Top Field First
    Compression mode : Lossy
    Bits/(Pixel*Frame) : 0.397
    Time code of first frame : 00:00:00:00
    Time code source : Group of pictures header
    GOP, Open/Closed : Open
    Stream size : 2.17 GiB (94%)
    ID : 192 (0xC0)
    Format : MPEG Audio
    Format version : Version 1
    Format profile : Layer 2
    Duration : 1h 15mn
    Bit rate mode : Constant
    Bit rate : 192 Kbps
    Channel(s) : 2 channels
    Sampling rate : 48.0 KHz
    Compression mode : Lossy
    Delay relative to video : 16ms
    Stream size : 104 MiB (4%)


    Download .torrent

    Download free and at maximum speed!

    How to Download? · What is a torrent? · Ratings and Limitations

    The site does not extend and does not store electronic(digital) versions of products, and only gives access to a reference catalogue created by users on torrent-files which contain only lists of the hash-sums, the earnest entreaty, with complaints(abuse) to access directly to the user. Files for an exchange on tracker are given by users of a site, and the administration does not bear the responsibility for their maintenance. The request to not fill in the files protected by copyrights, and also files of the illegal maintenance!

    [Profile] [PM]


    Post 11-Jan-2016 19:35 (after 2 hours 9 minutes)


    Топик был перенесен из форума Наше кино в форум Детские отечественные фильмы


    Как бы ты высоко не летал, не забывай, с кем ты ползал..
    Display posts from previous:    
    Reply to topic

    The time now is: Today 06:42

    All times are GMT + 3 Hours

    You cannot post new topics in this forum
    You cannot reply to topics in this forum
    You cannot edit your posts in this forum
    You cannot delete your posts in this forum
    You cannot vote in polls in this forum
    You cannot attach files in this forum
    You cannot download files in this forum