BitTorrentTracker PerecTracker.org
BitTorrentTracker PerecTracker.org
    
Регистрация  ·  Вход
 
 · 
Забыли пароль?

  • Дубравка (Радомир Василевский) [1967, детский фильм, DVB]

    Ответить на тему
     
    Автор Сообщение

    rechyn

    Создавать темы 11-Янв-2016 16:26

           

    [Цитировать]

    Дубравка
    Жанр: детский фильм
    Год выпуска: 1967
    Продолжительность: 01:15:23
    Режиссёр: Радомир Василевский
    В ролях: Лина Бракните, Ниеле Викирайте, Виталий Фадеев, К.Усатов, Ольга Аникина, Георгий Слабиняк, Сережа Тихонов, Миша Черныш, Алла Витрук, Виктор Семеновский, Рональд Гравис, Нина Вильвовская, Ольга Семенова, Валерий Зубарев, Георгий Милляр, Лев Перфилов
    Описание: По мотивам рассказа Радия Погодина. Дубравка - это обычная девочка, с удивлением обнаружившая, что детство кончилось. Она выросла, но детские нотки проскальзывают во всех ее словах и поступках. Дубравка очень категорична и не готова прощать даже малейших слабостей. Но вот приходит первая любовь, и ее мир изменяется.
    Качество видео: DVB
    Формат видео: MPG
    Видео: MPEG2, 720x576, 4:3, 25.00fps, 4117 Kbps
    Аудио: MP2 2.0, 48 kHz, 192 kbps

    MediaInfo

    General
    Complete name : Дубравка (1967) DVB.mpg
    Format : MPEG-PS
    File size : 2.32 GiB
    Duration : 1h 15mn
    Overall bit rate mode : Variable
    Overall bit rate : 4 397 Kbps
    Video
    ID : 224 (0xE0)
    Format : MPEG Video
    Format version : Version 2
    Format profile : Main@Main
    Format settings, BVOP : Yes
    Format settings, Matrix : Custom
    Format settings, GOP : Variable
    Format settings, picture structure : Frame
    Duration : 1h 15mn
    Bit rate mode : Variable
    Bit rate : 4 117 Kbps
    Maximum bit rate : 15.0 Mbps
    Width : 720 pixels
    Height : 576 pixels
    Display aspect ratio : 4:3
    Frame rate : 25.000 fps
    Standard : PAL
    Color space : YUV
    Chroma subsampling : 4:2:0
    Bit depth : 8 bits
    Scan type : Interlaced
    Scan order : Top Field First
    Compression mode : Lossy
    Bits/(Pixel*Frame) : 0.397
    Time code of first frame : 00:00:00:00
    Time code source : Group of pictures header
    GOP, Open/Closed : Open
    Stream size : 2.17 GiB (94%)
    Audio
    ID : 192 (0xC0)
    Format : MPEG Audio
    Format version : Version 1
    Format profile : Layer 2
    Duration : 1h 15mn
    Bit rate mode : Constant
    Bit rate : 192 Kbps
    Channel(s) : 2 channels
    Sampling rate : 48.0 KHz
    Compression mode : Lossy
    Delay relative to video : 16ms
    Stream size : 104 MiB (4%)

    Скриншоты

    Скачать .torrent

    Скачать торрент-файл бесплатно и на максимальной скорости!

    Как скачивать? · Что такое торрент? · Рейтинг и ограничения

    !ВНИМАНИЕ!
    Сайт не распространяет и не хранит электронные версии произведений, а занимается лишь лишь предоставлением доступа к создаваемому пользователями каталогу ссылок на торрент-файлы, которые содержат только списки хеш-сумм, убедительная просьба с жалобами обращаться напрямую к пользователю. Файлы для обмена на трекере предоставлены пользователями сайта, и администрация не несёт ответственности за их содержание. Просьба не заливать файлы, защищенные авторскими правами, а также файлы нелегального содержания!


    _________________
    [Профиль] [ЛС]

    -746

    Создавать темы 11-Янв-2016 18:35 (спустя 2 часа 9 минут)

           

    Топик был перенесен из форума Наше кино в форум Детские отечественные фильмы


    -sasha2006

    _________________
    Как бы ты высоко не летал, не забывай, с кем ты ползал..
     
    Показать сообщения:    
    Ответить на тему

    Текущее время: Сегодня, в 18:57

    Часовой пояс: GMT + 2



    Вы не можете начинать темы
    Вы не можете отвечать на сообщения
    Вы не можете редактировать свои сообщения
    Вы не можете удалять свои сообщения
    Вы не можете голосовать в опросах
    Вы не можете прикреплять файлы к сообщениям
    Вы не можете скачивать файлы