BitTorrentTracker PerecTracker.org
BitTorrentTracker PerecTracker.org
    
Регистрация  ·  Вход
 
 · 
Забыли пароль?

  • Мастер / The Master (Пол Томас Андерсон / Paul Thomas Anderson) [2012, США, драма, HDRip] Dub

    Ответить на тему
     
    Автор Сообщение

    rechyn

    Создавать темы 11-Янв-2016 16:26

           

    [Цитировать]

    Мастер / The Master-Страна: США
    Жанр: драма
    Год выпуска: 2012
    Продолжительность: 02:17:30-Перевод: Профессиональный (дублированный)
    Cубтитры: нет
    Режиссер: Пол Томас Андерсон / Paul Thomas Anderson-В ролях: Эми Адамс, Филип Сеймур Хоффман, Хоакин Феникс, Джесси Племонс, Патриция МакКормак, Рами Малек, Кевин Дж. О’Коннор, Джиллиан Белл, У. Эрл Браун, Лена Эндре, Мэдисен Бэти, Лора Дерн-Описание: Демобилизованный моряк с загадочным прошлым не может найти места в послевоенной Америке. Он меняет одну работу за другой, пока случайно не знакомится с харизматичным создателем религиозного культа, известным писателем и философом. К удивлению приверженцев модного учения, их гуру делает агрессивного маргинала своим ближайшим помощником. По мере того как новая вера завоевывает поклонников, бывший бродяга начинает задаваться вопросами о том, во что он верит, и кем является его наставник на самом деле. Но некоторым тайнам лучше оставаться нераскрытыми…--Качество видео: HDRip
    Формат видео: AVI-Видео: 1310 Kbps, 688*368 (1.85:1), at 23.976 fps, MPEG-4 Visual (XviD)
    Аудио: 192 Kbps, 48.0 KHz, 16 bits, 2 channels, AC-3
    -

    MediaInfo

    General
    Complete name : D:\Master.2012_HDRip.avi
    Format : AVI
    Format/Info : Audio Video Interleave
    File size : 1.45 GiB
    Duration : 2h 17mn
    Overall bit rate : 1 512 Kbps
    Writing application : VirtualDubMod 1.5.10.2 (build 2540/release)
    Writing library : VirtualDubMod build 2540/release
    Video
    ID : 0
    Format : MPEG-4 Visual
    Format profile : Advanced Simple@L5
    Format settings, BVOP : 1
    Format settings, QPel : No
    Format settings, GMC : No warppoints
    Format settings, Matrix : Custom
    Codec ID : XVID
    Codec ID/Hint : XviD
    Duration : 2h 17mn
    Bit rate : 1 310 Kbps
    Width : 688 pixels
    Height : 368 pixels
    Display aspect ratio : 1.85:1
    Frame rate : 23.976 fps
    Color space : YUV
    Chroma subsampling : 4:2:0
    Bit depth : 8 bits
    Scan type : Progressive
    Compression mode : Lossy
    Bits/(Pixel*Frame) : 0.216
    Stream size : 1.26 GiB (87%)
    Writing library : XviD 1.2.1 (UTC 2008-12-04)
    Audio
    ID : 1
    Format : AC-3
    Format/Info : Audio Coding 3
    Mode extension : CM (complete main)
    Format settings, Endianness : Big
    Codec ID : 2000
    Duration : 2h 17mn
    Bit rate mode : Constant
    Bit rate : 192 Kbps
    Channel(s) : 2 channels
    Channel positions : Front: L R
    Sampling rate : 48.0 KHz
    Bit depth : 16 bits
    Compression mode : Lossy
    Stream size : 189 MiB (13%)
    Alignment : Aligned on interleaves
    Interleave, duration : 42 ms (1.00 video frame)
    Interleave, preload duration : 512 ms

    Скриншот c названием фильма

    Скриншоты

    -
    Скачать .torrent

    Скачать торрент-файл бесплатно и на максимальной скорости!

    Как скачивать? · Что такое торрент? · Рейтинг и ограничения

    !ВНИМАНИЕ!
    Сайт не распространяет и не хранит электронные версии произведений, а занимается лишь лишь предоставлением доступа к создаваемому пользователями каталогу ссылок на торрент-файлы, которые содержат только списки хеш-сумм, убедительная просьба с жалобами обращаться напрямую к пользователю. Файлы для обмена на трекере предоставлены пользователями сайта, и администрация не несёт ответственности за их содержание. Просьба не заливать файлы, защищенные авторскими правами, а также файлы нелегального содержания!


    _________________
    [Профиль] [ЛС]
    Показать сообщения:    
    Ответить на тему

    Текущее время: Сегодня, в 20:15

    Часовой пояс: GMT + 2



    Вы не можете начинать темы
    Вы не можете отвечать на сообщения
    Вы не можете редактировать свои сообщения
    Вы не можете удалять свои сообщения
    Вы не можете голосовать в опросах
    Вы не можете прикреплять файлы к сообщениям
    Вы не можете скачивать файлы