BitTorrentTracker PerecTracker.org
BitTorrentTracker PerecTracker.org
    
Регистрация  ·  Вход
 
 · 
Забыли пароль?

  • [ATV3] Находка (Виктор Демент) [2015, Россия, Драма, WEB-DL, HD (1080p)] Original

    Ответить на тему
     
    Автор Сообщение

    Flirldrerve

    Создавать темы 11-Янв-2016 03:56

           

    [Цитировать]

    Находка
    -
    6.797 / 10 6.30 / 10
    -Год выпуска: 2015
    Страна: Россия
    Жанр: Драма
    Продолжительность: 01:37:59
    Перевод: Не требуется
    Оригинальная аудиодорожка: Есть
    Cубтитры: Нет
    Режиссёр: Виктор Демент
    Сценарий: Виктор Демент
    Продюсер: Наталия Будкина, Дмитрий Клепацкий, Елена Закутняя
    Оператор: Андрей Найденов
    Композитор: Пану Аалтио
    Художник: Герман Зарянкин, Анна Бартули, Павел Гришин
    Монтаж: Олег Моргунов, Наталья Кучеренко
    В ролях: Алексей Гуськов, Надежда Маркина, Анастасия Шевелёва, Валерий Смирнов, Мария Сокова, Егор Харламов, Анатолий Узденский, Марат Серажетдинов, Алексей Вертков, Владимир Шульга
    Сборы в России: $9 417
    Премьера (РФ): 3 декабря 2015, «Reflexion Films»
    Описание: Старший инспектор рыбнадзора Трофим Русанов, считающий себя «Законом», а окружающих людей — «сволочами и ворьем», волей обстоятельств оказывается в таежном лесу, один на один с суровой природой, за десятки километров от человеческого жилья. Случай, произошедший с ним в заснеженной тайге, круто меняет его взгляды на жизнь…-Качество исходника: WEB-DL 1080p (BlueBird)
    Качество: WEB-DL
    Тип: HD (1080p)
    Контейнер: M4V
    Видео: H.264, 1920x802, 2.40:1, 4 426 Kbps, 24.000 fps
    Аудио 1: Русский/Оригинальная дорожка , AAC / 2.0 / 156 Kbps / 48.0 KHz
    Аудио 2: Русский/Оригинальная дорожка , AC-3 / 5.1 / 384 Kbps / 48.0 KHz
    -

    iTunes Meta Tags

    Sort Name: Находка
    XID: Apple:vendor_id:2015-843870
    contentID: 1071894092
    Copyright: © 2015 Талан, Klepatski production
    Screenwriters: Виктор Демент
    Producers: Наталия Будкина, Дмитрий Клепацкий, Елена Закутняя
    Director: Виктор Демент
    Cast: Алексей Гуськов, Надежда Маркина, Анастасия Шевелёва, Валерий Смирнов, Мария Сокова, Егор Харламов, Анатолий Узденский, Марат Серажетдинов, Алексей Вертков, Владимир Шульга
    Studio: Кинокомпания Фигаро
    Rating: 135
    Long Description: Старший инспектор рыбнадзора Трофим Русанов, считающий себя "Законом", а окружающих людей - "сволочами и ворьем", волей обстоятельств оказывается в таежном лесу, один на один с суровой природой, за десятки километров от человеческого жилья. Случай, произошедший с ним в заснеженной тайге, круто меняет его взгляды на жизнь...
    Description: Старший инспектор рыбнадзора Трофим Русанов, считающий себя "Законом", а окружающих людей - "сволочами и ворьем", волей обстоятельств оказывается в таежном лесу, один на один с суровой природой, за десятки километров от человеческого жилья. Случай, произошедший с ним в заснеженной тайге, круто меняет его взгляды на жизнь...
    Release Date: 2015-01-01T08:00:00Z
    Genre: Драма
    Artist: Виктор Демент
    Name: Находка

    MediaInfo

    General
    Complete name : /Users/imac/HandBrake/Nahodka.WEB-DL.1080p.m4v
    Format : MPEG-4
    Codec ID : M4V  (M4V /M4A /mp42/isom)
    File size : 3.44 GiB
    Duration : 1h 38mn
    Overall bit rate mode : Variable
    Overall bit rate : 4 971 Kbps
    Movie name : Находка
    Performer : Виктор Демент
    Director : Виктор Демент
    Actor : Алексей Гуськов / Надежда Маркина / Анастасия Шевелёва / Валерий Смирнов / Мария Сокова / Егор Харламов / Анатолий Узденский / Марат Серажетдинов / Алексей Вертков / Владимир Шульга
    Screenplay by : Виктор Демент
    Producer : Наталия Будкина / Дмитрий Клепацкий / Елена Закутняя
    Production studio : Кинокомпания Фигаро
    Genre : Драма
    ContentType : Short Film
    Description : Старший инспектор рыбнадзора Трофим Русанов, считающий себя "Законом", а окружающих людей - "сволочами и ворьем", волей обстоятельств оказывается в таежном лесу, один на один с суровой природой, за десятки километров от человеческого жилья. Случай, произошедший с ним в заснеженной тайге, круто меняет его взгляды на жизнь...
    Recorded date : UTC 2015-01-01 08:00:00
    Encoded date : UTC 2016-01-10 20:17:37
    Tagged date : UTC 2016-01-10 20:19:57
    Copyright : © 2015 Талан, Klepatski production
    Cover : Yes
    Rating : None
    Title/Sort : Находка
    LongDescription : Старший инспектор рыбнадзора Трофим Русанов, считающий себя "Законом", а окружающих людей - "сволочами и ворьем", волей обстоятельств оказывается в таежном лесу, один на один с суровой природой, за десятки километров от человеческого жилья. Случай, произошедший с ним в заснеженной тайге, круто меняет его взгляды на жизнь...
    AppleStoreCatalogID : 1071894092
    Vendor : Apple:vendor_id:2015-843870
    ContentRating : ru-movie|16+|375|
    Video #1
    ID : 1
    Format : AVC
    Format/Info : Advanced Video Codec
    Format profile : High@L4
    Format settings, CABAC : Yes
    Format settings, ReFrames : 5 frames
    Codec ID : avc1
    Codec ID/Info : Advanced Video Coding
    Duration : 1h 38mn
    Bit rate : 4 426 Kbps
    Width : 1 920 pixels
    Height : 802 pixels
    Display aspect ratio : 2.40:1
    Frame rate mode : Variable
    Frame rate : 24.000 fps
    Minimum frame rate : 23.810 fps
    Maximum frame rate : 24.390 fps
    Color space : YUV
    Chroma subsampling : 4:2:0
    Bit depth : 8 bits
    Scan type : Progressive
    Bits/(Pixel*Frame) : 0.120
    Stream size : 3.06 GiB (89%)
    Title : Main Program
    Language : Russian
    Encoded date : UTC 2016-01-10 20:17:37
    Tagged date : UTC 2016-01-10 20:18:45
    Color range : Limited
    Color primaries : BT.709
    Transfer characteristics : BT.709
    Matrix coefficients : BT.709
    Menus : 4,5
    Video #2
    ID : 5
    Format : JPEG
    Codec ID : jpeg
    Duration : 1h 38mn
    Bit rate mode : Variable
    Bit rate : 791 bps
    Width : 640 pixels
    Height : 267 pixels
    Display aspect ratio : 2.40:1
    Frame rate mode : Variable
    Frame rate : 0.003 fps
    Minimum frame rate : 0.002 fps
    Maximum frame rate : 0.006 fps
    Color space : YUV
    Chroma subsampling : 4:2:0
    Bit depth : 8 bits
    Compression mode : Lossy
    Bits/(Pixel*Frame) : 1.543
    Stream size : 515 KiB (0%)
    Title : Chapter Images
    Language : Russian
    Default : No
    Encoded date : UTC 2016-01-10 20:18:51
    Tagged date : UTC 2016-01-10 20:18:52
    Menu For : 1
    Audio #1
    ID : 2
    Format : AAC
    Format/Info : Advanced Audio Codec
    Format profile : LC
    Codec ID : 40
    Duration : 1h 38mn
    Bit rate mode : Variable
    Bit rate : 156 Kbps
    Maximum bit rate : 230 Kbps
    Channel(s) : 2 channels
    Channel positions : Front: L R
    Sampling rate : 48.0 KHz
    Frame rate : 46.875 fps (1024 spf)
    Compression mode : Lossy
    Stream size : 110 MiB (3%)
    Title : Russian Stereo
    Language : Russian
    Default : Yes
    Alternate group : 1
    Encoded date : UTC 2016-01-10 20:17:37
    Tagged date : UTC 2016-01-10 20:17:42
    Fallback From : 3
    Audio #2
    ID : 3
    Format : AC-3
    Format/Info : Audio Coding 3
    Mode extension : CM (complete main)
    Format settings, Endianness : Big
    Codec ID : ac-3
    Duration : 1h 38mn
    Bit rate mode : Constant
    Bit rate : 384 Kbps
    Channel(s) : 6 channels
    Channel positions : Front: L C R, Side: L R, LFE
    Sampling rate : 48.0 KHz
    Frame rate : 31.250 fps (1536 spf)
    Bit depth : 16 bits
    Compression mode : Lossy
    Stream size : 272 MiB (8%)
    Title : Russian DD 5.1
    Language : Russian
    Default : Inherited From: 2
    Alternate group : 1
    Encoded date : UTC 2016-01-10 20:17:37
    Tagged date : UTC 2016-01-10 20:17:40
    Fallback To : 2
    Menu #1
    00:00:00.000 : 1
    00:06:40.000 : 2
    00:13:20.000 : 3
    00:20:00.000 : 4
    00:26:40.000 : 5
    00:33:20.000 : 6
    00:39:49.000 : 7
    00:45:40.000 : 8
    00:52:25.000 : 9
    00:58:54.000 : 10
    01:05:23.000 : 11
    01:13:36.000 : 12
    01:18:55.000 : 13
    01:25:20.000 : 14
    01:30:06.000 : 15
    01:36:12.000 : 16
    Menu #2
    ID : 4
    Codec ID : text
    Duration : 1h 38mn
    Language : Russian
    Encoded date : UTC 2016-01-10 20:18:46
    Tagged date : UTC 2016-01-10 20:18:46
    Menu For : 1
    00:00:00.000 : 1
    00:06:40.000 : 2
    00:13:20.000 : 3
    00:20:00.000 : 4
    00:26:40.000 : 5
    00:33:20.000 : 6
    00:39:49.000 : 7
    00:45:40.000 : 8
    00:52:25.000 : 9
    00:58:54.000 : 10
    01:05:23.000 : 11
    01:13:36.000 : 12
    01:18:55.000 : 13
    01:25:20.000 : 14
    01:30:06.000 : 15
    01:36:12.000 : 16
    Bit rate mode : VBR

    Скриншоты

    -

    Релиз подготовлен для просмотра на Apple TV, iPad, iPhone, iPod Touch.
    Для просмотра данного релиза на компьютере с ОС Windows рекомендуется использовать VLC media player
    Скачать .torrent

    Скачать торрент-файл бесплатно и на максимальной скорости!

    Как скачивать? · Что такое торрент? · Рейтинг и ограничения

    !ВНИМАНИЕ!
    Сайт не распространяет и не хранит электронные версии произведений, а занимается лишь лишь предоставлением доступа к создаваемому пользователями каталогу ссылок на торрент-файлы, которые содержат только списки хеш-сумм, убедительная просьба с жалобами обращаться напрямую к пользователю. Файлы для обмена на трекере предоставлены пользователями сайта, и администрация не несёт ответственности за их содержание. Просьба не заливать файлы, защищенные авторскими правами, а также файлы нелегального содержания!


    _________________
    [Профиль] [ЛС]
    Показать сообщения:    
    Ответить на тему

    Текущее время: Сегодня, в 14:19

    Часовой пояс: GMT + 2



    Вы не можете начинать темы
    Вы не можете отвечать на сообщения
    Вы не можете редактировать свои сообщения
    Вы не можете удалять свои сообщения
    Вы не можете голосовать в опросах
    Вы не можете прикреплять файлы к сообщениям
    Вы не можете скачивать файлы