BitTorrentTracker PerecTracker.org
BitTorrentTracker PerecTracker.org
    
Регистрация  ·  Вход
 
 · 
Забыли пароль?

  • Путешествие к Рождественской звезде / Reisen til julestjernen (Нильс Гёуп / Nils Gaup) [2012, Норвегия, Фэнтези, приключения, семейный, DVB] MVO

    Ответить на тему
     
    Автор Сообщение

    rechyn

    Создавать темы 10-Янв-2016 23:50

           

    [Цитировать]

    Путешествие к Рождественской звезде / Reisen til julestjernen
    Страна: Норвегия
    Жанр: Фэнтези, приключения, семейный
    Год выпуска: 2012
    Продолжительность: 01:10:30
    Перевод: Профессиональный (многоголосый закадровый)
    Cубтитры: нет
    Оригинальная аудиодорожка: нет
    Режиссер: Нильс Гёуп / Nils Gaup
    В ролях: Вильде Зейнер, Андерс Босмо Кристиансен, Агнес Киттельсен, Стиг Вернер Ме, Эйлиф Хеллум Норакер, Кристин Закариассен, Андреас Каппелен, Кнут Валле, Софи Асплин, Якоб Офтебро и другие.
    Описание: В одной сказочной стране уже 10 лет никто не видел Рождественской звезды, потому что король обвинил ее в пропаже своей дочери Златовласки. Но мудрец предсказал, что вернуть принцессу домой можно только после того, как звезда снова появится на небосклоне. Срок исполнения пророчества подходит к концу, но никто в королевстве не знает, как вернуть на темное небо свет. Тогда на поиски Рождественской звезды отправляется смелая девочка Соня, которая не боится чар злой колдуньи и готова к самым невероятным приключениям. Враги сделают все возможное и даже невозможное, чтобы Соня не добралась до звезды, но новые друзья, которых девочка заведет во многих странах, помогут ей выполнить свою задачу...
    Доп. информация: В данной версии фильма "Путешествие к Рождественской звезде", который транслировался по каналу "Дисней" полностью переведены все эпизоды фильма.
    Сэмпл: https://www.sendspace.com/file/kxqu4k
    Качество видео: DVB
    Формат видео: MPG
    Видео: MPEG2, 720:576, (4:3), 2250 Кбит/сек, 25,000 кадров/сек, (0.217 bit/pixel)
    Аудио: MP2, 192 Кбит/сек, 48,0 КГц, 2 канала

    MediaInfo

    Полное имя : Путешествие к рождественской звезде.mpg
    Формат : MPEG-PS
    Размер файла : 1,23 Гбайт
    Продолжительность : 1 ч. 10 м.
    Режим общего битрейта : Переменный
    Общий поток : 2491 Кбит/сек
    Видео
    Идентификатор : 224 (0xE0)
    Формат : MPEG Video
    Версия формата : Version 2
    Профиль формата : Main@Main
    Параметр BVOP формата : Да
    Параметр матрицы формата : Выборочная
    Параметр GOP формата : Variable
    Структура изображения : Frame
    Продолжительность : 1 ч. 10 м.
    Вид битрейта : Переменный
    Битрейт : 2250 Кбит/сек
    Максимальный битрейт : 15,0 Мбит/сек
    Ширина : 720 пикселей
    Высота : 576 пикселей
    Соотношение сторон : 4:3
    Частота кадров : 25,000 кадров/сек
    Стандарт вещания : PAL
    Цветовое пространство : YUV
    Субдискретизация насыщенности : 4:2:0
    Битовая глубина : 8 бит
    Тип развёртки : Чересстрочная
    Порядок развёртки : Верхнее поле первое
    Метод сжатия : С потерями
    Бит/(Пиксели*Кадры) : 0.217
    Размер потока : 1,11 Гбайт (90%)
    Аудио
    Идентификатор : 192 (0xC0)
    Формат : MPEG Audio
    Версия формата : Version 1
    Профиль формата : Layer 2
    Продолжительность : 1 ч. 10 м.
    Вид битрейта : Постоянный
    Битрейт : 192 Кбит/сек
    Каналы : 2 канала
    Частота : 48,0 КГц
    Метод сжатия : С потерями
    Задержка видео : 9 мс.
    Размер потока : 96,8 Мбайт (8%)

    Скриншот c названием фильма

    Скриншоты

    Запись потока *.ts произведена тюнером цифрового телевидения. В связи с тем, что не все плееры воспроизводят поток *.ts (MPEG-TS) , в данном видеофайле мной был сделан ремукс потока *.ts (MPEG-TS) в *.mpg (MPEG-PS) программой VideoReDo
    Скачать .torrent

    Скачать торрент-файл бесплатно и на максимальной скорости!

    Как скачивать? · Что такое торрент? · Рейтинг и ограничения

    !ВНИМАНИЕ!
    Сайт не распространяет и не хранит электронные версии произведений, а занимается лишь лишь предоставлением доступа к создаваемому пользователями каталогу ссылок на торрент-файлы, которые содержат только списки хеш-сумм, убедительная просьба с жалобами обращаться напрямую к пользователю. Файлы для обмена на трекере предоставлены пользователями сайта, и администрация не несёт ответственности за их содержание. Просьба не заливать файлы, защищенные авторскими правами, а также файлы нелегального содержания!


    _________________
    [Профиль] [ЛС]
    Показать сообщения:    
    Ответить на тему

    Текущее время: Сегодня, в 17:42

    Часовой пояс: GMT + 2



    Вы не можете начинать темы
    Вы не можете отвечать на сообщения
    Вы не можете редактировать свои сообщения
    Вы не можете удалять свои сообщения
    Вы не можете голосовать в опросах
    Вы не можете прикреплять файлы к сообщениям
    Вы не можете скачивать файлы