BitTorrentTracker PerecTracker.org
BitTorrentTracker PerecTracker.org
    
Регистрация  ·  Вход
 
 · 
Забыли пароль?

  • Хоббит: Пустошь Смауга / The Hobbit: The Desolation of Smaug (Питер Джексон / Peter Jackson) [2013, США, Новая Зеландия, фэнтези, приключения, BDRip] Dub + Sub rus forced

    Ответить на тему
     
    Автор Сообщение

    rechyn

    Создавать темы 10-Янв-2016 23:50

           

    [Цитировать]

    Хоббит: Пустошь Смауга / The Hobbit: The Desolation of Smaug
    «Beyond darkness... beyond desolation... lies the greatest danger of all»
    -Страна: США, Новая Зеландия / Metro-Goldwyn-Mayer, New Line Cinema, WingNut Films
    Жанр: фэнтези, приключения
    Год выпуска: 2013
    Продолжительность: 02:41:16
    Перевод: Профессиональный (дублированный) лицензия CEE
    Cубтитры: русские (forced) на надписи и речь эльфов и орков (внешние)
    Режиссёр: Питер Джексон / Peter Jackson
    В ролях: Мартин Фриман, Ричард Армитедж, Иэн МакКеллен, Эванджелин Лилли, Орландо Блум, Люк Эванс, Бенедикт Камбербэтч, Ли Пейс, Кен Стотт, Эйдан Тернер, Грэм МакТавиш, Джеймс Несбитт.
    Описание: Продолжение путешествия хоббита Бильбо Бэггинса, волшебника Гэндальфа и 13 отважных гномов. Их компания обязана завершить своё путешествие к Одинокой горе. Там они должны встретиться с величайшей опасностью из всех — созданием куда более ужасающим, чем все их прошлые противники, которое проверит на прочность не только их мужество, но крепость их дружбы и правильность выбранного пути, — драконом Смаугом.-Рейтинг

    -Сэмпл: http://multi-up.com/1083515-Качество видео: BDRip [The.Hobbit.The.Desolation.of.Smaug.2013.1080p.Remux-Talian-.mkv]
    Формат видео: AVI
    Видео: XviD build 65, 720x304 (2.37:1), 23.976 fps, ~1479 kbps avg, 0.282 bit/pixel
    Аудио: 48 kHz, AC3 Dolby Digital, 3/2 (L,C,R,l,r) + LFE ch, ~448 kbps avg (Dub)
    Формат субтитров: softsub (SRT)
    -

    MediaInfo

    Общее
    Полное имя : D:\The.Hobbit.The.Desolation.of.Smaug.2013.Dub.BDRip.2,18Gb.XviD.AC3\The.Hobbit.The.Desolation.of.Smaug.2013.Dub.BDRip.2,18Gb.XviD.AC3.avi
    Формат : AVI
    Формат/Информация : Audio Video Interleave
    Профиль формата : OpenDML
    Размер файла : 2,18 Гбайт
    Продолжительность : 2 ч. 41 м.
    Общий поток : 1939 Кбит/сек
    Название фильма : The Hobbit: The Desolation of Smaug 2013
    Режиссёр : Peter Jackson
    Дата записи : 29.03.2014
    Программа кодирования : VirtualDubModRus 1.5.10.2 (build 2542/release)
    Библиотека кодирования : VirtualDubMod build 2542/release
    Правообладатель : Rutracker.org
    Примечание : MooN_WalkeR
    Видео
    Идентификатор : 0
    Формат : MPEG-4 Visual
    Профиль формата : Advanced Simple@L5
    Параметр BVOP формата : 1
    Параметр QPel формата : Нет
    Параметр GMC формата : Без точки перехода
    Параметр матрицы формата : Выборочная
    Идентификатор кодека : XVID
    Идентификатор кодека/Подсказка : XviD
    Продолжительность : 2 ч. 41 м.
    Битрейт : 1479 Кбит/сек
    Ширина : 720 пикселей
    Высота : 304 пикселя
    Соотношение сторон : 2,35:1
    Частота кадров : 23,976 кадра/сек
    Цветовое пространство : YUV
    Субдискретизация насыщенности : 4:2:0
    Битовая глубина : 8 бит
    Тип развёртки : Прогрессивная
    Метод сжатия : С потерями
    Бит/(Пиксели*Кадры) : 0.282
    Размер потока : 1,67 Гбайт (76%)
    Библиотека кодирования : XviD 65
    Аудио
    Идентификатор : 1
    Формат : AC-3
    Формат/Информация : Audio Coding 3
    Расширение режима : CM (complete main)
    Идентификатор кодека : 2000
    Продолжительность : 2 ч. 41 м.
    Вид битрейта : Постоянный
    Битрейт : 448 Кбит/сек
    Каналы : 6 каналов
    Расположение каналов : Front: L C R, Side: L R, LFE
    Частота : 48,0 КГц
    Битовая глубина : 16 бит
    Метод сжатия : С потерями
    Размер потока : 517 Мбайт (23%)
    Выравнивание : Разделение по промежуткам
    Продолжительность промежутка : 42 мс. (1,00 видеокадр)
    Время предзагрузки промежутка : 500 мс.
    Заголовок : Dub

    Скриншоты


    Скачать .torrent

    Скачать торрент-файл бесплатно и на максимальной скорости!

    Как скачивать? · Что такое торрент? · Рейтинг и ограничения

    !ВНИМАНИЕ!
    Сайт не распространяет и не хранит электронные версии произведений, а занимается лишь лишь предоставлением доступа к создаваемому пользователями каталогу ссылок на торрент-файлы, которые содержат только списки хеш-сумм, убедительная просьба с жалобами обращаться напрямую к пользователю. Файлы для обмена на трекере предоставлены пользователями сайта, и администрация не несёт ответственности за их содержание. Просьба не заливать файлы, защищенные авторскими правами, а также файлы нелегального содержания!


    _________________
    [Профиль] [ЛС]
    Показать сообщения:    
    Ответить на тему

    Текущее время: Сегодня, в 20:19

    Часовой пояс: GMT + 2



    Вы не можете начинать темы
    Вы не можете отвечать на сообщения
    Вы не можете редактировать свои сообщения
    Вы не можете удалять свои сообщения
    Вы не можете голосовать в опросах
    Вы не можете прикреплять файлы к сообщениям
    Вы не можете скачивать файлы