BitTorrentTracker PerecTracker.org
BitTorrentTracker PerecTracker.org
    
Регистрация  ·  Вход
 
 · 
Забыли пароль?

  • Стажёр / The Intern (Нэнси Майерс / Nancy Meyers) [2015, США, Комедия,мелодрама, BDRip-AVC] Dub + Sub Rus,Eng + Original Eng

    Ответить на тему
     
    Автор Сообщение

    rechyn

    Создавать темы 10-Янв-2016 23:50

           

    [Цитировать]

    СтажёрThe Intern«Опыт всегда в моде»

    Страна: США
    Жанр: Комедия,мелодрама
    Год выпуска: 2015
    Продолжительность: 02:01:32
    Перевод: Профессиональный (дублированный) iTunes
    Cубтитры: русские,английские
    Оригинальная аудиодорожка: английский
    Режиссер: Нэнси Майерс / Nancy Meyers
    В ролях: Роберт Де Ниро, Энн Хэтэуэй, Рене Руссо, Андерс Холм, ДжоДжо Кушнер, Эндрю Рэннеллс, Адам Дивайн, Илан Кригсфелд, Зак Перлман, Джейсон Орли, Кристина Шерер, Нат Вулф
    Описание: 70-летний вдовец Бен Уитакер обнаруживает, что выход на пенсию - еще не конец. Пользуясь случаем, он становится старшим стажером в интернет-магазине модной одежды под руководством Джулс Остин.
    Доп. информация:
    Релиз группы:
    Качество видео: BDRip-AVC | Стажёр / The Intern (2015) 1080p BD-Remux| HD club
    Формат видео: MKV
    Видео: 1002x564 (16:9), 23,976 fps, 4032 Кbps, 0.298 bit/pixe
    Аудио: 48 kHz, AC3 Dolby Digital, 3/2 (L,C,R,l,r) + LFE ch, ~384.00 kbps avg DUB
    Аудио 2: 48 kHz, AC3 Dolby Digital, 3/2 (L,C,R,l,r) + LFE ch, ~448.00 kbps avg ENG
    Формат субтитров: softsub (SRT)
    Доп. информация о субтитрах: отключаемые

    MediaInfo

    General
    Unique ID : 225642204208388152972492605431497119888 (0xA9C11B977C7DDF17B62C7216F1805890)
    Complete name : D:\Мои рипы\Стажер\The Intern by_IVAN@190282.mkv
    Format : Matroska
    Format version : Version 4 / Version 2
    File size : 4.21 GiB
    Duration : 2h 1mn
    Overall bit rate : 4 963 Kbps
    Movie name : The Intern by_IVAN@190282
    Encoded date : UTC 2016-01-09 10:54:18
    Writing application : mkvmerge v8.6.1 ('Flying') 64bit
    Writing library : libebml v1.3.3 + libmatroska v1.4.4
    Attachements : cover.jpg
    DURATION : 02:00:11.413000000
    NUMBER_OF_FRAMES : 2601
    NUMBER_OF_BYTES : 80239
    _STATISTICS_WRITING_APP : mkvmerge v8.6.1 ('Flying') 64bit
    _STATISTICS_WRITING_DATE_UT : 2016-01-09 10:54:18
    _STATISTICS_TAGS : BPS DURATION NUMBER_OF_FRAMES NUMBER_OF_BYTES
    Video
    ID : 1
    Format : AVC
    Format/Info : Advanced Video Codec
    Format profile : High@L4.1
    Format settings, CABAC : Yes
    Format settings, ReFrames : 11 frames
    Codec ID : V_MPEG4/ISO/AVC
    Duration : 2h 1mn
    Bit rate : 4 032 Kbps
    Width : 1 002 pixels
    Height : 564 pixels
    Display aspect ratio : 16:9
    Frame rate mode : Constant
    Frame rate : 23.976 fps
    Color space : YUV
    Chroma subsampling : 4:2:0
    Bit depth : 8 bits
    Scan type : Progressive
    Bits/(Pixel*Frame) : 0.298
    Stream size : 3.42 GiB (81%)
    Title : The Intern by_IVAN@190282
    Writing library : x264 core 148 r2638kMod 7599210
    Encoding settings : cabac=1 / ref=11 / deblock=1:-3:-2 / analyse=0x3:0x133 / me=umh / subme=11 / psy=1 / fade_compensate=0.00 / psy_rd=1.00:0.05 / mixed_ref=1 / me_range=48 / chroma_me=1 / trellis=2 / 8x8dct=1 / cqm=0 / deadzone=21,11 / fast_pskip=0 / chroma_qp_offset=-3 / threads=6 / lookahead_threads=6 / sliced_threads=0 / nr=0 / decimate=1 / interlaced=0 / bluray_compat=0 / constrained_intra=0 / fgo=0 / bframes=16 / b_pyramid=2 / b_adapt=2 / b_bias=0 / direct=3 / weightb=1 / open_gop=0 / weightp=2 / keyint=240 / keyint_min=23 / scenecut=40 / intra_refresh=0 / rc_lookahead=60 / rc=crf / mbtree=0 / crf=17.0000 / qcomp=0.60 / qpmin=0 / qpmax=69 / qpstep=4 / vbv_maxrate=50000 / vbv_bufsize=62500 / crf_max=0.0 / nal_hrd=none / filler=0 / ip_ratio=1.40 / pb_ratio=1.30 / aq=2:1.10
    Language : English
    Default : Yes
    Forced : No
    Color range : Limited
    Color primaries : BT.709
    Transfer characteristics : BT.709
    Matrix coefficients : BT.709
    DURATION : 02:01:31.868000000
    NUMBER_OF_FRAMES : 174830
    NUMBER_OF_BYTES : 3762955273
    _STATISTICS_WRITING_APP : mkvmerge v8.6.1 ('Flying') 64bit
    _STATISTICS_WRITING_DATE_UT : 2016-01-09 10:54:18
    _STATISTICS_TAGS : BPS DURATION NUMBER_OF_FRAMES NUMBER_OF_BYTES
    Audio #1
    ID : 2
    Format : AC-3
    Format/Info : Audio Coding 3
    Mode extension : CM (complete main)
    Format settings, Endianness : Big
    Codec ID : A_AC3
    Duration : 2h 1mn
    Bit rate mode : Constant
    Bit rate : 384 Kbps
    Channel(s) : 6 channels
    Channel positions : Front: L C R, Side: L R, LFE
    Sampling rate : 48.0 KHz
    Compression mode : Lossy
    Stream size : 334 MiB (8%)
    Title : Dub
    Default : Yes
    Forced : No
    Audio #2
    ID : 3
    Format : AC-3
    Format/Info : Audio Coding 3
    Mode extension : CM (complete main)
    Format settings, Endianness : Big
    Codec ID : A_AC3
    Duration : 2h 1mn
    Bit rate mode : Constant
    Bit rate : 448 Kbps
    Channel(s) : 6 channels
    Channel positions : Front: L C R, Side: L R, LFE
    Sampling rate : 48.0 KHz
    Compression mode : Lossy
    Stream size : 389 MiB (9%)
    Title : Eng
    Language : English
    Default : No
    Forced : No
    Text #1
    ID : 4
    Format : UTF-8
    Codec ID : S_TEXT/UTF8
    Codec ID/Info : UTF-8 Plain Text
    Title : Rus forsed
    Default : Yes
    Forced : Yes
    Text #2
    ID : 5
    Format : UTF-8
    Codec ID : S_TEXT/UTF8
    Codec ID/Info : UTF-8 Plain Text
    Title : Rus
    Default : No
    Forced : No
    Text #3
    ID : 6
    Format : UTF-8
    Codec ID : S_TEXT/UTF8
    Codec ID/Info : UTF-8 Plain Text
    Title : Eng
    Language : English
    Default : No
    Forced : No
    Menu
    00:00:00.000 : en:Chapter 1
    00:07:33.411 : en:Chapter 2
    00:12:00.302 : en:Chapter 3
    00:12:59.445 : en:Chapter 4
    00:15:55.370 : en:Chapter 5
    00:20:56.922 : en:Chapter 6
    00:23:15.434 : en:Chapter 7
    00:25:52.675 : en:Chapter 8
    00:29:59.255 : en:Chapter 9
    00:38:14.041 : en:Chapter 10
    00:46:43.842 : en:Chapter 11
    00:49:46.315 : en:Chapter 12
    00:53:19.528 : en:Chapter 13
    00:55:10.222 : en:Chapter 14
    00:58:07.858 : en:Chapter 15
    01:08:42.326 : en:Chapter 16
    01:12:22.337 : en:Chapter 17
    01:15:45.707 : en:Chapter 18
    01:19:10.162 : en:Chapter 19
    01:22:46.836 : en:Chapter 20
    01:25:09.686 : en:Chapter 21
    01:28:07.738 : en:Chapter 22
    01:31:15.552 : en:Chapter 23
    01:36:02.756 : en:Chapter 24
    01:37:35.890 : en:Chapter 25
    01:40:35.404 : en:Chapter 26
    01:45:16.518 : en:Chapter 27
    01:48:44.475 : en:Chapter 28
    01:50:31.750 : en:Chapter 29
    01:52:36.541 : en:Chapter 30
    01:53:08.448 : en:Chapter 31
    01:59:16.356 : en:Chapter 32

    x264 log

    VIDEO ENCODING
    x264 [info]: frame I:1701 Avg QP:15.96 size:103244 PSNR Mean Y:46.50 U:50.38 V:50.03 Avg:47.41 Global:46.84
    x264 [info]: frame P:38314 Avg QP:17.52 size: 43152 PSNR Mean Y:44.80 U:49.51 V:48.99 Avg:45.83 Global:44.94
    x264 [info]: frame B:134815 Avg QP:19.17 size: 14346 PSNR Mean Y:43.94 U:49.20 V:48.75 Avg:45.04 Global:44.26
    x264 [info]: consecutive B-frames: 2.1% 2.7% 7.6% 28.4% 15.1% 28.6% 6.4% 6.5% 1.1% 0.1% 0.2% 0.6% 0.0% 0.1% 0.0% 0.0% 0.2%
    x264 [total]: encoded 174830 frames, 6.00 fps, 4128.39 kb/s, duration 8:05:23.78

    Скриншот c названием фильма

    Скриншоты

    Сравнения
    http://perectracker.org/viewtopic.php?t=5147027
    С таким разрешением как у меня битрейта можно было бы добавить еще 1000,если основываться на квантах,у конкурента при таком разрешении битрейта полюбому не хватает.
    Убедительная просьба пожалуйста кто скачал не бросайте раздачу!!!
    Скачать .torrent

    Скачать торрент-файл бесплатно и на максимальной скорости!

    Как скачивать? · Что такое торрент? · Рейтинг и ограничения

    !ВНИМАНИЕ!
    Сайт не распространяет и не хранит электронные версии произведений, а занимается лишь лишь предоставлением доступа к создаваемому пользователями каталогу ссылок на торрент-файлы, которые содержат только списки хеш-сумм, убедительная просьба с жалобами обращаться напрямую к пользователю. Файлы для обмена на трекере предоставлены пользователями сайта, и администрация не несёт ответственности за их содержание. Просьба не заливать файлы, защищенные авторскими правами, а также файлы нелегального содержания!


    _________________
    [Профиль] [ЛС]
    Показать сообщения:    
    Ответить на тему

    Текущее время: Сегодня, в 21:59

    Часовой пояс: GMT + 2



    Вы не можете начинать темы
    Вы не можете отвечать на сообщения
    Вы не можете редактировать свои сообщения
    Вы не можете удалять свои сообщения
    Вы не можете голосовать в опросах
    Вы не можете прикреплять файлы к сообщениям
    Вы не можете скачивать файлы