BitTorrentTracker PerecTracker.org
BitTorrentTracker PerecTracker.org
    
Регистрация  ·  Вход
 
 · 
Забыли пароль?

  • Бунт / Riot (Джон Лойд / John Lyde) [2015, США, боевик, HDRip] DVO (Parovoz Production)

    Ответить на тему
     
    Автор Сообщение

    rechyn

    Создавать темы 10-Янв-2016 19:57

           

    [Цитировать]

    Бунт / Riot (2015) HDRip-Производство: США
    Жанр: Боевик
    Режиссер: Джон Лойд
    Актеры: Мэттью Рис, Дольф Лундгрен, Даниэль Чакран, Чак Лиделл, Рен Барнс, Дуй Бек, Никита Боголюбов, Барбара Кросс, Пит Дэй
    Описание: Джек Стоун целенаправленно организовывает ограбление банка, чтобы быть попасть в тюрьму к пресловутому российскому вору в законе, Баламу. Балам является больше, чем обычный преступник; он очень хитрый и опасный авторитет, который контролирует полицию из-за решетки. Он живет в за решеткой в качестве прикрытия для своей реальной власти. Его камера — это роскошная отдельная комната, которая создана специально для него и недоступна для большинства заключенных. Даже смотритель тюрьмы опасается, приближаясь к его камере. Тем не менее, даже в окружении своих верных приспешников и охранников, Балам не знает что Джек идет за ним, чтобы отомстить за убитую семью…

    Дата мировой премьеры: 5 октября 2015
    Продолжительность: 01:23:56
    Качество видео: HDRip
    Перевод: Любительский двухголосый (Parovoz Production)
    Субтитры: Отсутствуют
    Реклама: Присутствуют голосовые и видео вставки рекламы.
    Видео: MPEG4, XviD, 720x400 (16:9), 25.000 fps, 1 939 Kbps (0.269 bit/pixel)
    Аудио: AC-3, 48.0 KHz, 2 ch, 384 Kbps, CBR

    MediaInfo:

    Общее
    Полное имя : C:\_\Бунт\Bunt 2015 HDRip.avi
    Формат : AVI
    Формат/Информация : Audio Video Interleave
    Размер файла : 1,37 Гбайт
    Продолжительность : 1 ч. 23 м.
    Общий поток : 2333 Кбит/сек
    Программа кодирования : VirtualDubMod 1.5.10.3 | (build 2550/release)
    Библиотека кодирования : VirtualDubMod build 2550/release
    Видео
    Идентификатор : 0
    Формат : MPEG-4 Visual
    Профиль формата : Advanced Simple@L5
    Параметр BVOP формата : 2
    Параметр QPel формата : Нет
    Параметр GMC формата : Без точки перехода
    Параметр матрицы формата : Default (MPEG)
    Идентификатор кодека : XVID
    Идентификатор кодека/Подсказка : XviD
    Продолжительность : 1 ч. 23 м.
    Битрейт : 1939 Кбит/сек
    Ширина : 720 пикселей
    Высота : 400 пикселей
    Соотношение сторон : 16:9
    Частота кадров : 25,000 кадров/сек
    Цветовое пространство : YUV
    Субдискретизация насыщенности : 4:2:0
    Битовая глубина : 8 бит
    Тип развёртки : Прогрессивная
    Метод сжатия : С потерями
    Бит/(Пиксели*Кадры) : 0.269
    Размер потока : 1,14 Гбайт (83%)
    Библиотека кодирования : XviD 1.2.1 (UTC 2008-12-04)
    Аудио
    Идентификатор : 1
    Формат : AC-3
    Формат/Информация : Audio Coding 3
    Расширение режима : CM (complete main)
    Идентификатор кодека : 2000
    Продолжительность : 1 ч. 23 м.
    Вид битрейта : Постоянный
    Битрейт : 384 Кбит/сек
    Каналы : 2 канала
    Расположение каналов : Front: L R
    Частота : 48,0 КГц
    Битовая глубина : 16 бит
    Метод сжатия : С потерями
    Размер потока : 231 Мбайт (16%)
    Выравнивание : Разделение по промежуткам
    Продолжительность промежутка : 40 мс. (1,00 видеокадр)
    Время предзагрузки промежутка : 500 мс.

    Скриншоты:
    Скачать .torrent

    Скачать торрент-файл бесплатно и на максимальной скорости!

    Как скачивать? · Что такое торрент? · Рейтинг и ограничения

    !ВНИМАНИЕ!
    Сайт не распространяет и не хранит электронные версии произведений, а занимается лишь лишь предоставлением доступа к создаваемому пользователями каталогу ссылок на торрент-файлы, которые содержат только списки хеш-сумм, убедительная просьба с жалобами обращаться напрямую к пользователю. Файлы для обмена на трекере предоставлены пользователями сайта, и администрация не несёт ответственности за их содержание. Просьба не заливать файлы, защищенные авторскими правами, а также файлы нелегального содержания!


    _________________
    [Профиль] [ЛС]
    Показать сообщения:    
    Ответить на тему

    Текущее время: Сегодня, в 18:37

    Часовой пояс: GMT + 2



    Вы не можете начинать темы
    Вы не можете отвечать на сообщения
    Вы не можете редактировать свои сообщения
    Вы не можете удалять свои сообщения
    Вы не можете голосовать в опросах
    Вы не можете прикреплять файлы к сообщениям
    Вы не можете скачивать файлы