BitTorrentTracker PerecTracker.org
BitTorrentTracker PerecTracker.org
    
Регистрация  ·  Вход
 
 · 
Забыли пароль?

  • Крид: Наследие Рокки / Creed (Райан Куглер / Ryan Coogler) [2015), Драма, спорт, DVDRip-AVC] MVO) [H.264]

    Ответить на тему
     
    Автор Сообщение

    rechyn

    Создавать темы 10-Янв-2016 19:42

           

    [Цитировать]

    Крид: Наследие Рокки / Creed (2015) DVDRip-Производство: США
    Жанр: Драма, спорт
    Режиссер: Райан Куглер
    Продюсер: Роберт Чартофф, Уильям Чартофф, Сильвестр Сталлоне
    Актеры: Майкл Б. Джордан, Сильвестр Сталлоне, Тесса Томпсон, Филисия Рашад, Андре Уорд, Тони Белью, Ричи Костер, Джейкоб ’Стич’ Дюран, Грэм МакТавиш
    Описание:
    В центре внимания сын Аполло Крида — первого серьезного соперника Рокки Бальбоа на ринге, впоследствии ставшего лучшим другом героя. Молодой человек не испытывает никакой страсти к боксу, впрочем, и его семья не желает видеть парня в ипостаси бойца. Тем не менее, талант отца в какой-то момент проявляется и в Криде-младшем, и юноша отправляется на поиски наставника, коим для него в итоге становится постаревший Рокки, тоже не слишком жаждущий возвращаться к старым делам. Даже в качестве тренера.

    Дата мировой премьеры: 25 ноября 2015
    Дата премьеры в России: 14 января 2016

    Релиз от: NNM-CLUB
    Продолжительность: 02:13:06
    Качество видео: DVDRip-AVC (batonchik)
    Перевод: Многоголосый закадровый, профессиональный (IDEAFILM)
    Субтитры: Отсутствуют
    Видео: AVC/H.264, 720x340@852x340, ~ 2148 кbps
    Аудио: AC-3, 2 ch , 192 кbps | Русский MVO

    h.264 log:

    --[Information] [10.01.2016 1:09:38] Standard error stream
    ---[Information] [10.01.2016 1:09:49] raw [info]: 720x340p 32:27 @ 30000/1001 fps (cfr)
    ---[Information] [10.01.2016 1:09:49] x264 [info]: using SAR=32/27
    ---[Information] [10.01.2016 1:09:49] x264 [info]: using cpu capabilities: MMX2 SSE2Fast SSSE3 SSE4.2 AVX
    ---[Information] [10.01.2016 1:09:49] x264 [info]: profile High, level 4.1
    ---[Information] [10.01.2016 3:55:11] x264 [info]: frame I:1592 Avg QP:14.26 size: 39670
    ---[Information] [10.01.2016 3:55:11] x264 [info]: frame P:63942 Avg QP:17.32 size: 19246
    ---[Information] [10.01.2016 3:55:11] x264 [info]: frame B:173833 Avg QP:21.03 size: 4893

    ---[Information] [10.01.2016 3:55:11] x264 [info]: consecutive B-frames: 4.9% 4.5% 11.6% 29.3% 27.1% 18.0% 2.1% 0.8% 0.6% 0.4% 0.6%
    ---[Information] [10.01.2016 3:55:11] x264 [info]: mb I I16..4: 9.6% 55.7% 34.7%
    ---[Information] [10.01.2016 3:55:11] x264 [info]: mb P I16..4: 2.1% 20.8% 4.7% P16..4: 21.8% 23.2% 13.5% 3.1% 0.6% skip:10.1%
    ---[Information] [10.01.2016 3:55:11] x264 [info]: mb B I16..4: 0.4% 2.7% 0.7% B16..8: 32.3% 18.6% 2.9% direct: 5.9% skip:36.6% L0:37.5% L1:37.9% BI:24.5%
    ---[Information] [10.01.2016 3:55:11] x264 [info]: 8x8 transform intra:73.4% inter:57.6%
    ---[Information] [10.01.2016 3:55:11] x264 [info]: direct mvs spatial:97.5% temporal:2.5%
    ---[Information] [10.01.2016 3:55:11] x264 [info]: coded y,uvDC,uvAC intra: 77.0% 83.8% 57.2% inter: 25.2% 27.5% 5.8%
    ---[Information] [10.01.2016 3:55:11] x264 [info]: i16 v,h,dc,p: 38% 15% 12% 35%
    ---[Information] [10.01.2016 3:55:11] x264 [info]: i8 v,h,dc,ddl,ddr,vr,hd,vl,hu: 20% 14% 17% 7% 7% 9% 7% 10% 10%
    ---[Information] [10.01.2016 3:55:11] x264 [info]: i4 v,h,dc,ddl,ddr,vr,hd,vl,hu: 44% 11% 10% 5% 6% 7% 5% 6% 5%
    ---[Information] [10.01.2016 3:55:11] x264 [info]: i8c dc,h,v,p: 27% 26% 31% 15%
    ---[Information] [10.01.2016 3:55:11] x264 [info]: Weighted P-Frames: Y:2.6% UV:1.1%
    ---[Information] [10.01.2016 3:55:11] x264 [info]: ref P L0: 54.2% 11.8% 17.7% 5.0% 3.9% 2.7% 2.5% 1.7% 0.5% 0.0%
    ---[Information] [10.01.2016 3:55:11] x264 [info]: ref B L0: 87.4% 8.1% 2.0% 1.0% 0.7% 0.5% 0.2%
    ---[Information] [10.01.2016 3:55:11] x264 [info]: ref B L1: 96.9% 3.1%
    ---[Information] [10.01.2016 3:55:11] x264 [info]: kb/s:2147.82
    ---[Information] [10.01.2016 3:55:11] encoded 239367 frames, 24.13 fps, 2147.82 kb/s
    --[Information] [10.01.2016 3:55:11] Final statistics
    ---[Information] [10.01.2016 3:55:11] Video Bitrate Desired: 2148 kbit/s
    ---[Information] [10.01.2016 3:55:11] Video Bitrate Obtained (approximate): 2149 kbit/s

    MediaInfo:

    Общее
    Полное имя :\Крид-Наследие Рокки_Creed.2015.DVDRip.AVC.NNM-CLUB.mkv
    Формат : Matroska
    Версия формата : Version 2
    Размер файла : 2,18 Гбайт
    Продолжительность : 2 ч. 13 м.
    Общий поток : 2342 Кбит/сек
    Название фильма : Крид: Наследие Рокки_Creed.2015.DVDRip.AVC.NNM-CLUB
    Дата кодирования : UTC 2016-01-10 05:53:24
    Программа кодирования : mkvmerge v7.7.0 ('Six Voices') 64bit built on Feb 28 2015 23:39:33
    Библиотека кодирования : libebml v1.3.1 + libmatroska v1.4.2
    Видео
    Идентификатор : 1
    Формат : AVC
    Формат/Информация : Advanced Video Codec
    Профиль формата : High@L4.1
    Параметр CABAC формата : Да
    Параметр ReFrames формата : 8 кадров
    Идентификатор кодека : V_MPEG4/ISO/AVC
    Продолжительность : 2 ч. 13 м.
    Битрейт : 2148 Кбит/сек
    Ширина : 720 пикселей
    Высота : 340 пикселей
    Соотношение сторон : 2,509
    Соотношение сторон в оригинале : 2,510
    Режим частоты кадров : Постоянный
    Частота кадров : 29,970 кадров/сек
    Цветовое пространство : YUV
    Субдискретизация насыщенности : 4:2:0
    Битовая глубина : 8 бит
    Тип развёртки : Прогрессивная
    Бит/(Пиксели*Кадры) : 0.293
    Размер потока : 1,96 Гбайт (90%)
    Заголовок : Крид: Наследие Рокки_Creed.2015.DVDRip.AVC.NNM-CLUB
    Библиотека кодирования : x264 core 148 r2638 7599210
    Настройки программы : cabac=1 / ref=8 / deblock=1:-3:-3 / analyse=0x3:0x133 / me=umh / subme=11 / psy=1 / psy_rd=1.00:0.15 / mixed_ref=1 / me_range=32 / chroma_me=1 / trellis=2 / 8x8dct=1 / cqm=0 / deadzone=21,11 / fast_pskip=0 / chroma_qp_offset=-3 / threads=11 / lookahead_threads=2 / sliced_threads=0 / nr=0 / decimate=1 / interlaced=0 / bluray_compat=0 / constrained_intra=0 / bframes=10 / b_pyramid=2 / b_adapt=2 / b_bias=0 / direct=3 / weightb=1 / open_gop=0 / weightp=2 / keyint=250 / keyint_min=23 / scenecut=40 / intra_refresh=0 / rc_lookahead=40 / rc=2pass / mbtree=1 / bitrate=2148 / ratetol=1.0 / qcomp=0.60 / qpmin=0 / qpmax=69 / qpstep=4 / cplxblur=20.0 / qblur=0.5 / vbv_maxrate=50000 / vbv_bufsize=62500 / nal_hrd=none / filler=0 / ip_ratio=1.40 / aq=1:0.90
    Язык : English
    Default : Да
    Forced : Нет
    Аудио
    Идентификатор : 2
    Формат : AC-3
    Формат/Информация : Audio Coding 3
    Расширение режима : CM (complete main)
    Параметр Endianness формата : Big
    Идентификатор кодека : A_AC3
    Продолжительность : 2 ч. 13 м.
    Вид битрейта : Постоянный
    Битрейт : 192 Кбит/сек
    Каналы : 2 канала
    Расположение каналов : Front: L R
    Частота : 48,0 КГц
    Метод сжатия : С потерями
    Размер потока : 183 Мбайт (8%)
    Заголовок : MVO - (IDEAFILM)
    Язык : Russian
    Default : Да
    Forced : Нет
    Меню
    00:00:00.000 : en:Chapter 01
    00:19:58.534 : en:Chapter 02
    00:39:57.368 : en:Chapter 03
    00:59:56.169 : en:Chapter 04
    01:19:55.302 : en:Chapter 05
    01:39:54.003 : en:Chapter 06
    01:59:53.070 : en:Chapter 07

    Скриншоты:
    Скачать .torrent

    Скачать торрент-файл бесплатно и на максимальной скорости!

    Как скачивать? · Что такое торрент? · Рейтинг и ограничения

    !ВНИМАНИЕ!
    Сайт не распространяет и не хранит электронные версии произведений, а занимается лишь лишь предоставлением доступа к создаваемому пользователями каталогу ссылок на торрент-файлы, которые содержат только списки хеш-сумм, убедительная просьба с жалобами обращаться напрямую к пользователю. Файлы для обмена на трекере предоставлены пользователями сайта, и администрация не несёт ответственности за их содержание. Просьба не заливать файлы, защищенные авторскими правами, а также файлы нелегального содержания!


    _________________
    [Профиль] [ЛС]
    Показать сообщения:    
    Ответить на тему

    Текущее время: Сегодня, в 13:02

    Часовой пояс: GMT + 2



    Вы не можете начинать темы
    Вы не можете отвечать на сообщения
    Вы не можете редактировать свои сообщения
    Вы не можете удалять свои сообщения
    Вы не можете голосовать в опросах
    Вы не можете прикреплять файлы к сообщениям
    Вы не можете скачивать файлы