BitTorrentTracker PerecTracker.org
BitTorrentTracker PerecTracker.org
    
Регистрация  ·  Вход
 
 · 
Забыли пароль?

  • Шарлотта Земляничка: Весёлое приключение Шарлотты Землянички / Strawberry Shortcake: Get Well Adventure (Луис Гассин / Louis Gassin) [2003, США, мультфильм, детский, семейный, DVDRip-AVC] Dub (TiJi) + Original Eng

    Ответить на тему
     
    Автор Сообщение

    rechyn

    Создавать темы 10-Янв-2016 19:37

           

    [Цитировать]

    Шарлотта Земляничка: Весёлое приключение Шарлотты Землянички / Strawberry Shortcake: Get Well Adventure-Страна: США
    Жанр: мультфильм, детский, семейный
    Продолжительность: 00:43:21
    Год выпуска: 2003
    Перевод: Профессиональный (дублированный) - Канал "TiJi"
    Русские субтитры: нет-Режиссёр: Луис Гассин / Louis Gassin
    Роли озвучивали: Сара Хейнк, ДеЖаре Барфилд, Дэниэл Кэнвилд, Нилс Хааланд, Джей Хэнсон, Ханна Кослоски, Сара Кослоски, Кэти Лабоски, Джерри Лондж, Корк Рамер- | Релиз: -Описание: В самом сладком, ярком и ароматном городе живут шесть настоящих подружек: Земляничка, Малинка, Черничка, Лимона, Апельсинка и Сливка. Этим ягодкам не раз придётся проверить свою дружбу на прочность. Маленькие модницы превращают каждый день в весёлую забаву, а неприятности в радостные приключения.-Семпл: http://sendfile.su/1191855-Качество: DVDRip-AVC
    Формат: MKV
    Видео: 720x576 (4:3) @ 768x576, 25.000 fps, AVC, ~1966 Kbps, 0.190 bits/pixel
    Аудио 1: Русский, AC3, 2/0 (L,R) ch, 192 kbps - Дубляж | Канал TiJi
    Аудио 2: English, AC3, 2/0 (L,R) ch, 192 kbps
    Субтитры: отсутствуют
    MediaInfo

    x264 log

    x264 [info]: 720x576p 16:15 @ 25/1 fps (cfr)
    x264 [info]: using SAR=16/15
    x264 [info]: using cpu capabilities: MMX2 SSE2Fast SSSE3 SSE4.2 AVX
    x264 [info]: profile High, level 4.0
    x264 [info]: cabac=1 ref=16 deblock=1:-1:-1 analyse=0x3:0x133 me=umh subme=11 psy=1 fade_compensate=0.00 psy_rd=1.00:0.00 mixed_ref=1 me_range=48 chroma_me=1 trellis=2 8x8dct=1 cqm=0 deadzone=21,11 fast_pskip=0 chroma_qp_offset=-2 threads=12 lookahead_threads=3 sliced_threads=0 nr=0 decimate=1 interlaced=0 bluray_compat=0 constrained_intra=0 fgo=0 bframes=10 b_pyramid=2 b_adapt=2 b_bias=0 direct=3 weightb=1 open_gop=0 weightp=2 keyint=250 keyint_min=25 scenecut=40 intra_refresh=0 rc=crf mbtree=0 crf=17.0000 qcomp=0.60 qpmin=0 qpmax=69 qpstep=4 ip_ratio=1.40 pb_ratio=1.30 aq=1:0.90
    x264 [info]: frame I:591 Avg QP:15.82 size: 51707
    x264 [info]: frame P:19703 Avg QP:17.90 size: 19685
    x264 [info]: frame B:44738 Avg QP:19.44 size: 5246
    x264 [info]: consecutive B-frames: 4.9% 7.4% 20.8% 51.1% 10.3% 4.5% 0.6% 0.1% 0.1% 0.1% 0.2%
    x264 [info]: mb I I16..4: 14.0% 74.9% 11.2%
    x264 [info]: mb P I16..4: 1.6% 11.4% 1.1% P16..4: 31.7% 23.1% 14.5% 1.2% 0.1% skip:15.4%
    x264 [info]: mb B I16..4: 0.4% 1.8% 0.1% B16..8: 32.9% 9.7% 2.3% direct: 3.8% skip:48.9% L0:41.1% L1:49.3% BI: 9.5%
    x264 [info]: 8x8 transform intra:79.2% inter:71.5%
    x264 [info]: direct mvs spatial:100.0% temporal:0.0%
    x264 [info]: coded y,uvDC,uvAC intra: 61.8% 81.7% 60.1% inter: 18.0% 27.1% 14.4%
    x264 [info]: i16 v,h,dc,p: 34% 25% 17% 24%
    x264 [info]: i8 v,h,dc,ddl,ddr,vr,hd,vl,hu: 16% 16% 37% 4% 4% 5% 5% 6% 8%
    x264 [info]: i4 v,h,dc,ddl,ddr,vr,hd,vl,hu: 24% 14% 23% 5% 8% 8% 7% 6% 5%
    x264 [info]: i8c dc,h,v,p: 31% 36% 23% 10%
    x264 [info]: Weighted P-Frames: Y:2.8% UV:2.4%
    x264 [info]: ref P L0: 53.0% 6.0% 14.9% 5.1% 3.9% 3.3% 2.8% 1.8% 1.5% 1.3% 1.2% 1.2% 1.1% 1.1% 1.0% 0.8%
    x264 [info]: ref B L0: 76.0% 11.0% 3.8% 1.8% 1.3% 1.2% 1.1% 0.8% 0.6% 0.5% 0.4% 0.5% 0.4% 0.3% 0.3%
    x264 [info]: ref B L1: 92.9% 7.1%
    x264 [info]: kb/s:2008.62
    x264 [info]: encoded 65032 frames, 15.40 fps, 2008.62 kb/s, duration 1:10:22.31
    GeneralUnique ID : 186756472147151862193713314668339692681 (0x8C7FFCFAC83B876B90A4A7CF5B9A8489)Complete name : Strawberry.Shortcake-Get.Well.Adventure.2003.DVDRip.AVC-rutracker.xfiles.mkvFormat : MatroskaFormat version : Version 4 / Version 2File size : 743 MiBDuration : 43mn 21sOverall bit rate : 2 397 KbpsMovie name : Strawberry.Shortcake-Get.Well.Adventure.2003.DVDRip.AVC-rutracker.xfilesEncoded date : UTC 2016-01-10 11:08:30Writing application : mkvmerge v8.3.0 ('Over the Horizon') 64bitWriting library : libebml v1.3.1 + libmatroska v1.4.2Cover : YesAttachments : Cover.jpg / x264.log
    VideoID : 1Format : AVCFormat/Info : Advanced Video CodecFormat profile : High@L4Format settings, CABAC : YesFormat settings, ReFrames : 16 framesCodec ID : V_MPEG4/ISO/AVCDuration : 43mn 21sBit rate : 1 966 KbpsWidth : 720 pixelsHeight : 576 pixelsDisplay aspect ratio : 4:3Frame rate mode : ConstantFrame rate : 25.000 fpsStandard : PALColor space : YUVChroma subsampling : 4:2:0Bit depth : 8 bitsScan type : ProgressiveBits/(Pixel*Frame) : 0.190Stream size : 610 MiB (82%)Title : http://perectracker.org/viewtopic.php?t=5148319Writing library : x264 core 148 r2638kMod 7599210Encoding settings : cabac=1 / ref=16 / deblock=1:-1:-1 / analyse=0x3:0x133 / me=umh / subme=11 / psy=1 / fade_compensate=0.00 / psy_rd=1.00:0.00 /mixed_ref=1 / me_range=48 / chroma_me=1 / trellis=2 / 8x8dct=1 / cqm=0 / deadzone=21,11 / fast_pskip=0 / chroma_qp_offset=-2 / threads=12 / lookahead_threads=3 /sliced_threads=0 / nr=0 / decimate=1 / interlaced=0 / bluray_compat=0 / constrained_intra=0 / fgo=0 / bframes=10 / b_pyramid=2 / b_adapt=2 / b_bias=0 / direct=3 /weightb=1 / open_gop=0 / weightp=2 / keyint=250 / keyint_min=25 / scenecut=40 / intra_refresh=0 / rc=crf / mbtree=0 / crf=17.0000 / qcomp=0.60 / qpmin=0 / qpmax=69 /qpstep=4 / ip_ratio=1.40 / pb_ratio=1.30 / aq=1:0.90Language : EnglishDefault : YesForced : NoColor range : LimitedColor primaries : BT.601 PALTransfer characteristics : BT.470 System B, BT.470 System GMatrix coefficients : BT.601
    Audio #1ID : 2Format : AC-3Format/Info : Audio Coding 3Mode extension : CM (complete main)Format settings, Endianness : BigCodec ID : A_AC3Duration : 43mn 21sBit rate mode : ConstantBit rate : 192 KbpsChannel(s) : 2 channelsChannel positions : Front: L RSampling rate : 48.0 KHzFrame rate : 31.250 fps (1536 spf)Compression mode : LossyStream size : 59.5 MiB (8%)Title : Дубляж | Канал TiJiLanguage : RussianDefault : YesForced : No
    Audio #2ID : 3Format : AC-3Format/Info : Audio Coding 3Format profile : Dolby DigitalMode extension : CM (complete main)Format settings, Endianness : BigCodec ID : A_AC3Duration : 43mn 21sBit rate mode : ConstantBit rate : 192 KbpsChannel(s) : 2 channelsChannel positions : Front: L RSampling rate : 48.0 KHzFrame rate : 31.250 fps (1536 spf)Compression mode : LossyStream size : 59.5 MiB (8%)Language : EnglishDefault : NoForced : No
    Menu00:00:00.000 : en:Chapter 100:10:02.800 : en:Chapter 200:24:10.960 : en:Chapter 300:33:13.840 : en:Chapter 400:43:21.760 : en:Chapter 5

    Скриншоты

    Скачать .torrent

    Скачать торрент-файл бесплатно и на максимальной скорости!

    Как скачивать? · Что такое торрент? · Рейтинг и ограничения

    !ВНИМАНИЕ!
    Сайт не распространяет и не хранит электронные версии произведений, а занимается лишь лишь предоставлением доступа к создаваемому пользователями каталогу ссылок на торрент-файлы, которые содержат только списки хеш-сумм, убедительная просьба с жалобами обращаться напрямую к пользователю. Файлы для обмена на трекере предоставлены пользователями сайта, и администрация не несёт ответственности за их содержание. Просьба не заливать файлы, защищенные авторскими правами, а также файлы нелегального содержания!


    _________________
    [Профиль] [ЛС]
    Показать сообщения:    
    Ответить на тему

    Текущее время: Сегодня, в 22:04

    Часовой пояс: GMT + 2



    Вы не можете начинать темы
    Вы не можете отвечать на сообщения
    Вы не можете редактировать свои сообщения
    Вы не можете удалять свои сообщения
    Вы не можете голосовать в опросах
    Вы не можете прикреплять файлы к сообщениям
    Вы не можете скачивать файлы