Register  ·  Log in
Forgot password?

  • Они нашли Ад / They Found Hell (Ник Лион / Nick Lyon) [2015, США, ужасы, HDTVRip] VO (Хихикающий доктор)

    Reply to topic
    Author Message


    Post 10-Jan-2016 12:13



    Они нашли Ад / They Found Hell
    Страна: США
    Жанр: ужасы
    Год выпуска: 2015
    Продолжительность: 01:23:03
    Перевод: Одноголосый закадровый Хихикающий доктор
    Cубтитры: нет
    Оригинальная аудиодорожка: нет
    Режиссер: Ник Лион / Nick Lyon
    В ролях: Кэбби Бордерс, Мирела Берк, Хантер Канеди, Горан Ганчев, Джеймс Собол Келли, Иван Костадинов, Лори Кинастон, Надя Полякова, Макс Райнхарт
    Описание: Группа подростков случайно открыли портал в ад и их туда засосало.
    Качество видео: HDTVRip
    Формат видео: AVI
    Видео: Xvid 720x400 23.98fps 1 963 Kbps
    Аудио: Dolby AC3 48000Hz 6ch 384kbps


    Format : AVI
    Format/Info : Audio Video Interleave
    File size : 1.37 GiB
    Duration : 1h 23mn
    Overall bit rate : 2 356 Kbps
    Writing application : VirtualDubMod | || (build 2550/release)
    Writing library : VirtualDubMod build 2550/release
    ID : 0
    Format : MPEG-4 Visual
    Format profile : AdvancedSimple@L5
    Format settings, BVOP : Yes
    Format settings, QPel : No
    Format settings, GMC : No warppoints
    Format settings, Matrix : Custom
    Codec ID : XVID
    Codec ID/Hint : XviD
    Duration : 1h 23mn
    Bit rate : 1 963 Kbps
    Width : 720 pixels
    Height : 400 pixels
    Display aspect ratio : 16:9
    Frame rate : 23.976 fps
    Resolution : 24 bits
    Colorimetry : 4:2:0
    Scan type : Progressive
    Bits/(Pixel*Frame) : 0.284
    Stream size : 1.14 GiB (83%)
    Writing library : XviD 73
    ID : 1
    Format : AC-3
    Format/Info : Audio Coding 3
    Codec ID : 2000
    Duration : 1h 23mn
    Bit rate mode : Constant
    Bit rate : 384 Kbps
    Channel(s) : 6 channels
    Channel positions : Front: L C R, Surround: L R, LFE
    Sampling rate : 48.0 KHz
    Stream size : 228 MiB (16%)
    Alignment : Split accross interleaves
    Interleave, duration : 42 ms (1.00 video frame)
    Interleave, preload duration : 500 ms

    Скриншот c названием фильма


    Download .torrent

    Download free and at maximum speed!

    How to Download? · What is a torrent? · Ratings and Limitations

    The site does not extend and does not store electronic(digital) versions of products, and only gives access to a reference catalogue created by users on torrent-files which contain only lists of the hash-sums, the earnest entreaty, with complaints(abuse) to access directly to the user. Files for an exchange on tracker are given by users of a site, and the administration does not bear the responsibility for their maintenance. The request to not fill in the files protected by copyrights, and also files of the illegal maintenance!

    [Profile] [PM]
    Display posts from previous:    
    Reply to topic

    The time now is: Today 04:16

    All times are GMT + 3 Hours

    You cannot post new topics in this forum
    You cannot reply to topics in this forum
    You cannot edit your posts in this forum
    You cannot delete your posts in this forum
    You cannot vote in polls in this forum
    You cannot attach files in this forum
    You cannot download files in this forum