Register  ·  Log in
Forgot password?

  • Джекпот / Arme Riddere (Магнус Мартенс / Magnus Martens) [2011, Норвегия, боевик, комедия, криминал, HDRip] MVO

    Reply to topic
    Author Message


    Post 10-Jan-2016 03:49



    Джекпот / Arme Riddere
    Год выпуска: 2011
    Страна: Норвегия
    Жанр: боевик, комедия, криминал
    Продолжительность: 01:25:35.128 (123243 frames)
    Перевод: Профессиональный (многоголосый, закадровый)
    Оригинальная аудиодорожка: нет
    Русские субтитры: нет
    Режиссер: Магнус Мартенс / Magnus Martens
    В ролях: Карре Хеллум, Мэдс Оусдаль, Хенрик Местад, Артур Бернинг, Андреас Каппелен, Лена Эллингсен, Фридтьов Сохейм, Петер Андерссон, Ян Гронли, Мари Блокхус
    Описание: Испуганный и окровавленный, Оскар Свендсен просыпается с ружьём в руках в сомнительном заведении. Вокруг него 8 трупов и полиция, направляющаяся к нему. Оскар знает, что он невиновен. А всё началось с того, что четыре парня выиграли 1,7 миллиона в лотерею…
    Качество: HDRip
    Формат: AVI
    Видео кодек: XviD
    Аудио кодек: АС3
    Видео: 720x304 (2.37:1), 24.000 fps, XviD build 73 ~1970 kbps avg, 0.38 bit/pixel
    Аудио: 48 kHz, AC3 Dolby Digital, 3/2 (L,C,R,l,r) + LFE ch, ~448.00 kbps avg



    F:\004 Мои раздачи\Джекпот 1,46\dzhekpot_1.46_[]_by_bm11.avi
    Complete name : F:\004 Мои раздачи\Джекпот 1,46\dzhekpot_1.46_[]_by_bm11.avi
    Format : AVI
    Format/Info : Audio Video Interleave
    File size : 1.45 GiB
    Duration : 1h 25mn
    Overall bit rate : 2 428 Kbps
    Director : bm11
    Writing application : VirtualDubMod | || (build 2550/release)
    Format : MPEG-4 Visual
    Format profile : Streaming Video@L1
    Format settings, BVOP : Yes
    Format settings, QPel : No
    Format settings, GMC : No warppoints
    Format settings, Matrix : Custom
    Codec ID : XVID
    Codec ID/Hint : XviD
    Duration : 1h 25mn
    Bit rate : 1 971 Kbps
    Width : 720 pixels
    Height : 304 pixels
    Display aspect ratio : 2.35
    Frame rate : 24.000 fps
    Original frame rate : 24.005 fps
    Resolution : 24 bits
    Colorimetry : 4:2:0
    Scan type : Progressive
    Bits/(Pixel*Frame) : 0.375
    Stream size : 1.18 GiB (81%)
    Writing library : XviD 73
    Format : AC-3
    Format/Info : Audio Coding 3
    Codec ID : 2000
    Duration : 1h 25mn
    Bit rate mode : Constant
    Bit rate : 448 Kbps
    Channel(s) : 6 channels
    Channel positions : Front: L C R, Surround: L R, LFE
    Sampling rate : 48.0 KHz
    Stream size : 274 MiB (18%)
    Alignment : Split accross interleaves
    Interleave, duration : 42 ms (1.00 video frame)
    Interleave, preload duration : 500 ms


    Download .torrent

    Download free and at maximum speed!

    How to Download? · What is a torrent? · Ratings and Limitations

    The site does not extend and does not store electronic(digital) versions of products, and only gives access to a reference catalogue created by users on torrent-files which contain only lists of the hash-sums, the earnest entreaty, with complaints(abuse) to access directly to the user. Files for an exchange on tracker are given by users of a site, and the administration does not bear the responsibility for their maintenance. The request to not fill in the files protected by copyrights, and also files of the illegal maintenance!

    [Profile] [PM]
    Display posts from previous:    
    Reply to topic

    The time now is: Today 06:18

    All times are GMT + 3 Hours

    You cannot post new topics in this forum
    You cannot reply to topics in this forum
    You cannot edit your posts in this forum
    You cannot delete your posts in this forum
    You cannot vote in polls in this forum
    You cannot attach files in this forum
    You cannot download files in this forum