BitTorrentTracker PerecTracker.org
BitTorrentTracker PerecTracker.org
    
Регистрация  ·  Вход
 
 · 
Забыли пароль?

  • Джекпот / Arme Riddere (Магнус Мартенс / Magnus Martens) [2011, Норвегия, боевик, комедия, криминал, HDRip] MVO

    Ответить на тему
     
    Автор Сообщение

    rechyn

    Создавать темы 10-Янв-2016 02:49

           

    [Цитировать]

    Джекпот / Arme Riddere
    Год выпуска: 2011
    Страна: Норвегия
    Жанр: боевик, комедия, криминал
    Продолжительность: 01:25:35.128 (123243 frames)
    Перевод: Профессиональный (многоголосый, закадровый)
    Оригинальная аудиодорожка: нет
    Русские субтитры: нет
    Режиссер: Магнус Мартенс / Magnus Martens
    В ролях: Карре Хеллум, Мэдс Оусдаль, Хенрик Местад, Артур Бернинг, Андреас Каппелен, Лена Эллингсен, Фридтьов Сохейм, Петер Андерссон, Ян Гронли, Мари Блокхус
    Описание: Испуганный и окровавленный, Оскар Свендсен просыпается с ружьём в руках в сомнительном заведении. Вокруг него 8 трупов и полиция, направляющаяся к нему. Оскар знает, что он невиновен. А всё началось с того, что четыре парня выиграли 1,7 миллиона в лотерею…
    Качество: HDRip
    Формат: AVI
    Видео кодек: XviD
    Аудио кодек: МР3
    Видео: 688x288 (2.39:1), 24.000 fps, XviD build 73 ~1077 kbps avg, 0.23 bit/pixel
    Аудио: 48 kHz, MPEG Layer 3, 2 ch, ~128.00 kbps avg

    Скриншоты

    Медиаинфо

    F:\004 Мои раздачи\Джекпот 745\dzhekpot_745_[torrents.ru]_by_bm11.avi
    General
    Complete name : F:\004 Мои раздачи\Джекпот 745\dzhekpot_745_[torrents.ru]_by_bm11.avi
    Format : AVI
    Format/Info : Audio Video Interleave
    File size : 744 MiB
    Duration : 1h 25mn
    Overall bit rate : 1 215 Kbps
    Director : bm11
    Writing application : VirtualDubMod 1.5.10.3 | www.virtualdub-fr.org || (build 2550/release)
    Video
    Format : MPEG-4 Visual
    Format profile : Streaming Video@L1
    Format settings, BVOP : Yes
    Format settings, QPel : No
    Format settings, GMC : No warppoints
    Format settings, Matrix : Custom
    Codec ID : XVID
    Codec ID/Hint : XviD
    Duration : 1h 25mn
    Bit rate : 1 078 Kbps
    Width : 688 pixels
    Height : 288 pixels
    Display aspect ratio : 2.35
    Frame rate : 24.000 fps
    Original frame rate : 24.005 fps
    Resolution : 24 bits
    Colorimetry : 4:2:0
    Scan type : Progressive
    Bits/(Pixel*Frame) : 0.227
    Stream size : 660 MiB (89%)
    Writing library : XviD 73
    Audio
    Format : MPEG Audio
    Format version : Version 1
    Format profile : Layer 3
    Codec ID : 55
    Codec ID/Hint : MP3
    Duration : 1h 25mn
    Bit rate mode : Constant
    Bit rate : 128 Kbps
    Minimum bit rate : 128 Kbps
    Channel(s) : 2 channels
    Sampling rate : 48.0 KHz
    Resolution : 16 bits
    Stream size : 78.4 MiB (11%)
    Alignment : Aligned on interleaves
    Interleave, duration : 42 ms (1.00 video frame)
    Interleave, preload duration : 504 ms
    Writing library : LAME3.99r
    Encoding settings : CBR

    Исходник

    Dzhekpot.2011.P.BDRip.720p
    Скачать .torrent

    Скачать торрент-файл бесплатно и на максимальной скорости!

    Как скачивать? · Что такое торрент? · Рейтинг и ограничения

    !ВНИМАНИЕ!
    Сайт не распространяет и не хранит электронные версии произведений, а занимается лишь лишь предоставлением доступа к создаваемому пользователями каталогу ссылок на торрент-файлы, которые содержат только списки хеш-сумм, убедительная просьба с жалобами обращаться напрямую к пользователю. Файлы для обмена на трекере предоставлены пользователями сайта, и администрация не несёт ответственности за их содержание. Просьба не заливать файлы, защищенные авторскими правами, а также файлы нелегального содержания!


    _________________
    [Профиль] [ЛС]
    Показать сообщения:    
    Ответить на тему

    Текущее время: Сегодня, в 11:56

    Часовой пояс: GMT + 2



    Вы не можете начинать темы
    Вы не можете отвечать на сообщения
    Вы не можете редактировать свои сообщения
    Вы не можете удалять свои сообщения
    Вы не можете голосовать в опросах
    Вы не можете прикреплять файлы к сообщениям
    Вы не можете скачивать файлы