BitTorrentTracker PerecTracker.org
BitTorrentTracker PerecTracker.org
    
Регистрация  ·  Вход
 
 · 
Забыли пароль?

  • Дьявол / Diablo (2015) WEB-DLRip [VO]

    Ответить на тему
     
    Автор Сообщение

    -sasha2006

    Создавать темы 10-Янв-2016 02:07

           

    [Цитировать]

    Дьявол / Diablo (2015) WEB-DLRip -Производство: США, Канада
    Жанр: Вестерн, Боевик, Триллер
    Режиссер: Лоуренс Рёк
    Продюсер: Лоуренс Рёк, Джейкоб Берковиц, Лэсли Бэрковиц
    Актеры: Скотт Иствуд, Уолтон Гоггинс, Камилла Белль, Дэнни Гловер, Адам Бич, Диего Диабло Дель Мар, Неста Купер, Уильям Белло
    Описание:
    Бывший солдат гражданской войны с посттравматический синдромом, пытается спасти свою жену, которую похитили. Он идет по следу похитителей... Травма дает о себе знать и он переживает все ужасы дьявольской войны, которые вернулись, чтобы преследовать его...

    Дата мировой премьеры: 2 октября 2015
    Продолжительность: 01:23:11
    Качество видео: WEB-DLRip
    Перевод: Одноголосый закадровый, любительский
    Озвучка / Автор перевода: Хихикающий доктор
    Вид субтитров: Отсутствуют
    Видео: Xvid, 720x300, ~1977 Кбит/с
    Аудио: MP3, 2 ch, 192 Кбит/с, CBR
    Семпл: Скачать

    Mediainfo:

    Общее
    Полное имя                               : D:\FILMЬl\BPPO\Djavoll.avi
    Формат                                   : AVI
    Формат/Информация                        : Audio Video Interleave
    Размер файла                             : 1,30 Гбайт
    Продолжительность                        : 1 ч. 23 м.
    Общий поток                              : 2243 Кбит/сек
    Программа кодирования                    : VirtualDubMod 1.5.10.2 (build 2542/release)
    Библиотека кодирования                   : VirtualDubMod build 2542/release
    Видео
    Идентификатор                            : 0
    Формат                                   : xvid
    Идентификатор кодека                     : xvid
    Продолжительность                        : 1 ч. 23 м.
    Битрейт                                  : 1977 Кбит/сек
    Ширина                                   : 720 пикселей
    Высота                                   : 300 пикселей
    Соотношение сторон                       : 2,40:1
    Частота кадров                           : 23,976 кадра/сек
    Бит/(Пиксели*Кадры)                      : 0.382
    Размер потока                            : 1,15 Гбайт (88%)
    Аудио
    Идентификатор                            : 1
    Формат                                   : MPEG Audio
    Версия формата                           : Version 1
    Профиль формата                          : Layer 3
    Режим                                    : Joint stereo
    Идентификатор кодека                     : 55
    Идентификатор кодека/Подсказка           : MP3
    Продолжительность                        : 1 ч. 23 м.
    Вид битрейта                             : Постоянный
    Битрейт                                  : 256 Кбит/сек
    Каналы                                   : 2 канала
    Частота                                  : 44,1 КГц
    Метод сжатия                             : С потерями
    Размер потока                            : 152 Мбайт (11%)
    Выравнивание                             : Соединение по промежуткам
    Продолжительность промежутка             : 42  мс. (1,00 видеокадр)
    Время предзагрузки промежутка            : 522  мс.

    Скриншоты:
    Время раздачи: С 09:00 до 23:30 до 5 скачавших
    Скачать .torrent

    Скачать торрент-файл бесплатно и на максимальной скорости!

    Как скачивать? · Что такое торрент? · Рейтинг и ограничения

    !ВНИМАНИЕ!
    Сайт не распространяет и не хранит электронные версии произведений, а занимается лишь лишь предоставлением доступа к создаваемому пользователями каталогу ссылок на торрент-файлы, которые содержат только списки хеш-сумм, убедительная просьба с жалобами обращаться напрямую к пользователю. Файлы для обмена на трекере предоставлены пользователями сайта, и администрация не несёт ответственности за их содержание. Просьба не заливать файлы, защищенные авторскими правами, а также файлы нелегального содержания!


    _________________

    ░▒▓█▀▄▀▄▀▄█▓▒░
    [Профиль] [ЛС]
    Показать сообщения:    
    Ответить на тему

    Текущее время: Сегодня, в 10:51

    Часовой пояс: GMT + 2



    Вы не можете начинать темы
    Вы не можете отвечать на сообщения
    Вы не можете редактировать свои сообщения
    Вы не можете удалять свои сообщения
    Вы не можете голосовать в опросах
    Вы не можете прикреплять файлы к сообщениям
    Вы не можете скачивать файлы