BitTorrentTracker PerecTracker.org
BitTorrentTracker PerecTracker.org
    
Регистрация  ·  Вход
 
 · 
Забыли пароль?

  • Космический охотник: Приключения в запретной зоне / Spacehunter: Adventures in the Forbidden Zone (Лэмонт Джонсон / Lamont Johnson) [1983, Канада, США, фантастика, приключения, WEB-DL 720p] 2x MVO + AVO + Sub Rus, Eng + Original Eng

    Ответить на тему
     
    Автор Сообщение

    Flirldrerve

    Создавать темы 09-Янв-2016 22:38

           

    [Цитировать]

    Космический охотник: Приключения в запретной зоне / Spacehunter: Adventures in the Forbidden Zone
    Страна: Канада, США
    Студия: Columbia Pictures Corporation
    Жанр: фантастика, приключения
    Год выпуска: 1983
    Продолжительность: 01:29:50
    Перевод: Профессиональный (многоголосый закадровый) ТВ-3
    Перевод 2: Профессиональный (многоголосый закадровый)
    Перевод 3: Авторский (одноголосый закадровый) Ю. Живов
    Cубтитры: русские(Eazin), английские
    Оригинальная аудиодорожка: английский
    Режиссер: Лэмонт Джонсон / Lamont Johnson
    В ролях: Питер Штраусс, Молли Рингуолд, Эрни Хадсон, Андреа Марковиччи, Майкл Айронсайд, Бисон Кэрролл, Хрант Альянак, Дебора Прэтт, Алейса Ширли, Кали Тимминс
    Описание: Отдаленное будущее. Пассажирский космолайнер терпит крушение. Погибают все, кроме трех девушек, которые за минуту до взрыва успевают покинуть обреченный корабль на спасательном челноке. Следуя заложенной в него программе, челнок самостоятельно подыскивает планету для высадки. Этой планетой становится Терра-11, атмосфера которой схожа с земной. Из сводки новостей космический охотник Вулф узнает о крушении корабля и о высадке выживших пассажирок.
    В результате анализа запрошенной информации оказывается, что в течение долгих лет её население было охвачено чумой. Медицинская экспедиция, отправленная на планету, не смогла справиться с разбушевавшейся болезнью и Терре-11 был присвоен статус запретной зоны. Вулф сомневается, стоит ли рисковать головой и лететь на зачумленную планету, но за спасение девушек назначено огромное вознаграждение…


    Sample
    Тип релиза: WEB-DL 720p
    Контейнер: MKV
    Видео: MPEG4 AVC Video, H264, 1278x720, 23.976 fps, 4256 kbps
    Аудио: Russian (AC3, 2 ch, 192 kbps, 16 bits, 48.0 KHz) - MVO ТВ3
    Аудио 2: Russian (AC3, 2 ch, 192 kbps, 16 bits, 48.0 KHz) - MVO
    Аудио 3: Russian (AC3, 2 ch, 192 kbps, 16 bits, 48.0 KHz) - AVO Живов
    Аудио 4: English (AC3, 4 ch, 448 kbps, 16 bits, 48.0 KHz) - оригинал DVD
    Аудио 5: English (AAC, 2 ch, 160 kbps, 16 bits, 48.0 KHz) - оригинал WEB-DL
    Формат субтитров: softsub (SRT)

    MediaInfo

    General
    Unique ID : 229233834031868856895650870190652627198 (0xAC74D49D25885CDF9F02BE58865998FE)
    Complete name : E:\1\Spacehunter Adventures in the Forbidden Zone 1983 WEB-DL 720p.mkv
    Format : Matroska
    Format version : Version 4 / Version 2
    File size : 3.41 GiB
    Duration : 1h 29mn
    Overall bit rate : 5 438 Kbps
    Encoded date : UTC 2015-12-20 18:06:04
    Writing application : mkvmerge v6.1.0 ('Old Devil') built on Mar 2 2013 14:32:37
    Writing library : libebml v1.3.0 + libmatroska v1.4.0
    Video
    ID : 1
    Format : AVC
    Format/Info : Advanced Video Codec
    Format profile : High@L3.1
    Format settings, CABAC : No
    Format settings, ReFrames : 2 frames
    Codec ID : V_MPEG4/ISO/AVC
    Duration : 1h 29mn
    Width : 1 278 pixels
    Height : 720 pixels
    Display aspect ratio : 16:9
    Frame rate mode : Constant
    Frame rate : 23.976 fps
    Color space : YUV
    Chroma subsampling : 4:2:0
    Bit depth : 8 bits
    Scan type : Progressive
    Language : English
    Default : Yes
    Forced : No
    Color primaries : BT.709
    Transfer characteristics : BT.709
    Matrix coefficients : BT.709
    Audio #1
    ID : 2
    Format : AC-3
    Format/Info : Audio Coding 3
    Mode extension : CM (complete main)
    Format settings, Endianness : Big
    Codec ID : A_AC3
    Duration : 1h 29mn
    Bit rate mode : Constant
    Bit rate : 192 Kbps
    Channel count : 2 channels
    Channel positions : Front: L R
    Sampling rate : 48.0 KHz
    Bit depth : 16 bits
    Compression mode : Lossy
    Stream size : 123 MiB (4%)
    Title : MVO ТВ3
    Language : Russian
    Default : Yes
    Forced : No
    Audio #2
    ID : 3
    Format : AC-3
    Format/Info : Audio Coding 3
    Mode extension : CM (complete main)
    Format settings, Endianness : Big
    Codec ID : A_AC3
    Duration : 1h 29mn
    Bit rate mode : Constant
    Bit rate : 192 Kbps
    Channel count : 2 channels
    Channel positions : Front: L R
    Sampling rate : 48.0 KHz
    Bit depth : 16 bits
    Compression mode : Lossy
    Stream size : 123 MiB (4%)
    Title : MVO
    Language : Russian
    Default : No
    Forced : No
    Audio #3
    ID : 4
    Format : AC-3
    Format/Info : Audio Coding 3
    Mode extension : CM (complete main)
    Format settings, Endianness : Big
    Codec ID : A_AC3
    Duration : 1h 29mn
    Bit rate mode : Constant
    Bit rate : 192 Kbps
    Channel count : 2 channels
    Channel positions : Front: L R
    Sampling rate : 48.0 KHz
    Bit depth : 16 bits
    Compression mode : Lossy
    Stream size : 123 MiB (4%)
    Title : AVO Живов
    Language : Russian
    Default : No
    Forced : No
    Audio #4
    ID : 5
    Format : AC-3
    Format/Info : Audio Coding 3
    Mode extension : CM (complete main)
    Format settings, Endianness : Big
    Codec ID : A_AC3
    Duration : 1h 29mn
    Bit rate mode : Constant
    Bit rate : 448 Kbps
    Channel count : 4 channels
    Channel positions : Front: L C R, Back: C
    Sampling rate : 48.0 KHz
    Bit depth : 16 bits
    Compression mode : Lossy
    Stream size : 288 MiB (8%)
    Title : оригинал DVD
    Language : English
    Default : No
    Forced : No
    Audio #5
    ID : 6
    Format : AAC
    Format/Info : Advanced Audio Codec
    Format profile : LC
    Codec ID : A_AAC
    Duration : 1h 29mn
    Channel count : 2 channels
    Channel positions : Front: L R
    Sampling rate : 48.0 KHz
    Compression mode : Lossy
    Title : оригинал WEB-DL
    Language : English
    Default : No
    Forced : No
    Text #1
    ID : 7
    Format : UTF-8
    Codec ID : S_TEXT/UTF8
    Codec ID/Info : UTF-8 Plain Text
    Language : Russian
    Default : No
    Forced : No
    Text #2
    ID : 8
    Format : UTF-8
    Codec ID : S_TEXT/UTF8
    Codec ID/Info : UTF-8 Plain Text
    Language : English
    Default : No
    Forced : No
    Menu
    00:00:00.000 : en:START
    00:04:15.000 : en:NATIVES ARE RESTLESS
    00:06:02.000 : en:WOLFF & CHALMERS
    00:10:06.000 : en:TERR 11 RESCUE MISSION
    00:12:51.000 : en:VISITORS
    00:18:40.000 : en:GRANDMAN PATTERSON
    00:20:22.000 : en:BEST MODEL EVER
    00:21:34.000 : en:SERUM DEPOT
    00:23:57.000 : en:NIKI THE TWISTER
    00:27:16.000 : en:THE CHEMIST
    00:28:14.000 : en:"I DON'T EAT NO DOGS!"
    00:30:35.000 : en:NEW FRIENDS
    00:31:50.000 : en:NIKI COMES CLEAN
    00:34:34.000 : en:SECTOR CHIEF WASHINGTON
    00:44:02.000 : en:MUTANTS!
    00:47:01.000 : en:OVERDOG
    00:48:42.000 : en:WET & WILD
    00:55:36.000 : en:THE DEAL
    01:01:22.000 : en:"CHILDREN...AREN'T THEY?"
    01:04:07.000 : en:THE GRAVEYARD
    01:06:11.000 : en:"LET THE GAMES BEGIN!"
    01:10:34.000 : en:HITTING THE SLAVE PENS
    01:11:53.000 : en:CONSOLATION PRIZE
    01:14:16.000 : en:THE MAZE
    01:17:56.000 : en:THE FUSION TUBE
    01:19:37.000 : en:WOLFF VS. OVERDOG
    01:22:45.000 : en:GRAVEYARD DESTROYED
    01:23:32.000 : en:TRUST WORDS

    Скриншоты

    Скачать .torrent

    Скачать торрент-файл бесплатно и на максимальной скорости!

    Как скачивать? · Что такое торрент? · Рейтинг и ограничения

    !ВНИМАНИЕ!
    Сайт не распространяет и не хранит электронные версии произведений, а занимается лишь лишь предоставлением доступа к создаваемому пользователями каталогу ссылок на торрент-файлы, которые содержат только списки хеш-сумм, убедительная просьба с жалобами обращаться напрямую к пользователю. Файлы для обмена на трекере предоставлены пользователями сайта, и администрация не несёт ответственности за их содержание. Просьба не заливать файлы, защищенные авторскими правами, а также файлы нелегального содержания!


    _________________
    [Профиль] [ЛС]
    Показать сообщения:    
    Ответить на тему

    Текущее время: Сегодня, в 02:48

    Часовой пояс: GMT + 2



    Вы не можете начинать темы
    Вы не можете отвечать на сообщения
    Вы не можете редактировать свои сообщения
    Вы не можете удалять свои сообщения
    Вы не можете голосовать в опросах
    Вы не можете прикреплять файлы к сообщениям
    Вы не можете скачивать файлы