BitTorrentTracker PerecTracker.org
BitTorrentTracker PerecTracker.org
    
Регистрация  ·  Вход
 
 · 
Забыли пароль?

  • Непутёвая учёба / Дурное воспитание / The Bad Education Movie (Эллиот Хегарти / Elliot Hegarty) [2015, Великобритания, комедия, BDRip 720p] DVO (SNK-TV) + Original Eng + Sub Rus, Eng

    Ответить на тему
     
    Автор Сообщение

    Flirldrerve

    Создавать темы 09-Янв-2016 22:38

           

    [Цитировать]

    Непутёвая учёба / Дурное Воспитание
    The Bad Education Movie
    -Год выпуска: 2015
    Страна: Великобритания
    Жанр: Комедия
    Продолжительность: 01:30:42-Перевод: Любительский (двухголосый закадровый) - /SNK-TV/
    Субтитры: Русские - М_Васильев, Английские
    Оригинальная аудиодорожка: английский-Режиссёр: Эллиот Хегарти / Elliot Hegarty
    В ролях: Кае Александр, Мишель Гомес, Никки Рунэклс, Сара Солемани, Джек Бенс, Джэк Уайтхолл, Лейла Хоффман, Мэтью Хорн, Этан Лоуренс, Чарли Уэрнэм-Описание: Альфи Уикерс — самый ужасный учитель в истории человечества. Мало того, что он ничего не знает и ничему не учит, так еще и постоянно вляпывается в дурацкие истории и втягивает в них своих учеников. Они, впрочем, вполне достойны своего учителя. Редкостные оболтусы. Вот, отправились они на экскурсию в Корнуолл, но вместо осмотра достопримечательностей, веселая компания оказалась втянута в государственный переворот...-
    Скачать сэмпл-Все раздачи-Качество: BDRip 720p (The.Bad.Education.Movie.2015.720p.BluRay.X264-AMIABLE)
    Формат: MKV
    Видео кодек: H264
    Аудио кодек: AC3, DTS
    Видео: MPEG4 Video (H264) 1280x688 23.976fps 5 387 Kbps
    Аудио Rus: Dolby AC3 48000Hz 6ch 640kbps
    Аудио Eng: DTS 48000Hz 6ch 1536kbps-

    Скриншот c названием фильма

    [/URL]

    -

    Скриншоты


    -

    MediaInfo

    General
    Unique ID : 253485114227692959812807160482166606406 (0xBEB3750AB72140D0877C5DADEED60A46)
    Complete name : H:\Фильмы\BEM\The.Bad.Education.Movie.2015.720p.BluRay.X264.SNK-TV.mkv
    Format : Matroska
    Format version : Version 4 / Version 2
    File size : 4.77 GiB
    Duration : 1h 30mn
    Overall bit rate : 7 535 Kbps
    Encoded date : UTC 2015-12-22 21:26:14
    Writing application : mkvmerge v8.1.0 ('Psychedelic Postcard') 64bit
    Writing library : libebml v1.3.1 + libmatroska v1.4.2
    DURATION : 01:30:42.528000000
    NUMBER_OF_FRAMES : 170079
    NUMBER_OF_BYTES : 435402240
    _STATISTICS_WRITING_APP : mkvmerge v8.1.0 ('Psychedelic Postcard') 64bit
    _STATISTICS_WRITING_DATE_UTC : 2015-12-22 21:26:14
    _STATISTICS_TAGS : BPS DURATION NUMBER_OF_FRAMES NUMBER_OF_BYTES
    Video
    ID : 1
    Format : AVC
    Format/Info : Advanced Video Codec
    Format profile : High@L4.1
    Format settings, CABAC : Yes
    Format settings, ReFrames : 5 frames
    Codec ID : V_MPEG4/ISO/AVC
    Duration : 1h 30mn
    Bit rate : 5 387 Kbps
    Width : 1 280 pixels
    Height : 688 pixels
    Display aspect ratio : 1.85:1
    Frame rate mode : Constant
    Frame rate : 23.976 fps
    Color space : YUV
    Chroma subsampling : 4:2:0
    Bit depth : 8 bits
    Scan type : Progressive
    Bits/(Pixel*Frame) : 0.255
    Stream size : 3.32 GiB (69%)
    Writing library : x264 core 148 r2638 7599210
    Encoding settings : cabac=1 / ref=5 / deblock=1:-3:-3 / analyse=0x3:0x113 / me=umh / subme=8 / psy=1 / psy_rd=1.00:0.00 / mixed_ref=1 / me_range=16 / chroma_me=1 / trellis=1 / 8x8dct=1 / cqm=0 / deadzone=21,11 / fast_pskip=1 / chroma_qp_offset=-2 / threads=12 / lookahead_threads=2 / sliced_threads=0 / nr=0 / decimate=1 / interlaced=0 / bluray_compat=0 / constrained_intra=0 / bframes=3 / b_pyramid=2 / b_adapt=2 / b_bias=0 / direct=3 / weightb=1 / open_gop=0 / weightp=2 / keyint=240 / keyint_min=24 / scenecut=40 / intra_refresh=0 / rc_lookahead=50 / rc=2pass / mbtree=1 / bitrate=5387 / ratetol=1.0 / qcomp=0.60 / qpmin=0 / qpmax=69 / qpstep=4 / cplxblur=20.0 / qblur=0.5 / ip_ratio=1.40 / aq=1:1.00
    Language : English
    Default : Yes
    Forced : No
    DURATION : 01:30:42.980000000
    NUMBER_OF_FRAMES : 130501
    NUMBER_OF_BYTES : 3662307642
    _STATISTICS_WRITING_APP : mkvmerge v8.1.0 ('Psychedelic Postcard') 64bit
    _STATISTICS_WRITING_DATE_UTC : 2015-12-22 21:26:14
    _STATISTICS_TAGS : BPS DURATION NUMBER_OF_FRAMES NUMBER_OF_BYTES
    Audio #1
    ID : 2
    Format : AC-3
    Format/Info : Audio Coding 3
    Mode extension : CM (complete main)
    Format settings, Endianness : Big
    Codec ID : A_AC3
    Duration : 1h 30mn
    Bit rate mode : Constant
    Bit rate : 640 Kbps
    Channel(s) : 6 channels
    Channel positions : Front: L C R, Side: L R, LFE
    Sampling rate : 48.0 KHz
    Compression mode : Lossy
    Stream size : 415 MiB (8%)
    Title : Rus (SNK-TV)
    Language : Russian
    Default : Yes
    Forced : No
    Audio #2
    ID : 3
    Format : DTS
    Format/Info : Digital Theater Systems
    Mode : 16
    Format settings, Endianness : Big
    Codec ID : A_DTS
    Duration : 1h 30mn
    Bit rate mode : Constant
    Bit rate : 1 509 Kbps
    Channel(s) : 6 channels
    Channel positions : Front: L C R, Side: L R, LFE
    Sampling rate : 48.0 KHz
    Bit depth : 24 bits
    Compression mode : Lossy
    Stream size : 979 MiB (20%)
    Title : ENG
    Language : English
    Default : No
    Forced : No
    Text #1
    ID : 4
    Format : UTF-8
    Codec ID : S_TEXT/UTF8
    Codec ID/Info : UTF-8 Plain Text
    Title : Rus
    Language : Russian
    Default : No
    Forced : No
    Text #2
    ID : 5
    Format : UTF-8
    Codec ID : S_TEXT/UTF8
    Codec ID/Info : UTF-8 Plain Text
    Title : End
    Language : English
    Default : No
    Forced : No
    Text #3
    ID : 6
    Format : UTF-8
    Codec ID : S_TEXT/UTF8
    Codec ID/Info : UTF-8 Plain Text
    Title : SDH
    Language : English
    Default : No
    Forced : No
    Menu
    00:00:00.000 : en:00:00:00.000
    00:08:28.675 : en:00:08:28.675
    00:12:52.730 : en:00:12:52.730
    00:20:54.503 : en:00:20:54.503
    00:29:13.835 : en:00:29:13.835
    00:39:00.588 : en:00:39:00.588
    00:46:34.041 : en:00:46:34.041
    00:53:46.932 : en:00:53:46.932
    01:01:53.960 : en:01:01:53.960
    01:10:37.525 : en:01:10:37.525
    01:16:39.136 : en:01:16:39.136
    01:22:29.236 : en:01:22:29.236

    -

    О релизе

    Перевод: Михаил Васильев
    Редакция и озвучка: SNK-TV-Картина содержит сцены с грубым, а местами жестоким юмором. (а местами пошлым)
    Фильм основан на одноименном сериале, который выходил на канале ВВС с 2012 по 2014 год.
    -BDRip 1080p | DVDRip
    Сезон 1 | Сезон 2 | Сезон 3
    Скачать .torrent

    Скачать торрент-файл бесплатно и на максимальной скорости!

    Как скачивать? · Что такое торрент? · Рейтинг и ограничения

    !ВНИМАНИЕ!
    Сайт не распространяет и не хранит электронные версии произведений, а занимается лишь лишь предоставлением доступа к создаваемому пользователями каталогу ссылок на торрент-файлы, которые содержат только списки хеш-сумм, убедительная просьба с жалобами обращаться напрямую к пользователю. Файлы для обмена на трекере предоставлены пользователями сайта, и администрация не несёт ответственности за их содержание. Просьба не заливать файлы, защищенные авторскими правами, а также файлы нелегального содержания!


    _________________
    [Профиль] [ЛС]
    Показать сообщения:    
    Ответить на тему

    Текущее время: Сегодня, в 02:35

    Часовой пояс: GMT + 2



    Вы не можете начинать темы
    Вы не можете отвечать на сообщения
    Вы не можете редактировать свои сообщения
    Вы не можете удалять свои сообщения
    Вы не можете голосовать в опросах
    Вы не можете прикреплять файлы к сообщениям
    Вы не можете скачивать файлы