BitTorrentTracker PerecTracker.org
BitTorrentTracker PerecTracker.org
    
Регистрация  ·  Вход
 
 · 
Забыли пароль?

  • Рождественская песнь / Рождественская история / A Christmas Carol (Стэн Филлипс / Stan Phillips) [1997, США, мультфильм, фэнтези, драма, DVDRip-AVC] Dub (Канал Gulli) + AVO (Юрий Живов) + Original Eng

    Ответить на тему
     
    Автор Сообщение

    rechyn

    Создавать темы 09-Янв-2016 22:38

           

    [Цитировать]

    Рождественская песнь / Рождественская история / A Christmas Carol-Страна: США
    Жанр: мультфильм, фэнтези, драма
    Продолжительность: 01:09:50
    Год выпуска: 1997
    Перевод 1: Профессиональный (дублированный) - Канал "Gulli"
    Перевод 2: Авторский (одноголосый закадровый) - Юрий Живов
    Русские субтитры: нет-Режиссёр: Стэн Филлипс / Stan Phillips
    Роли озвучивали: Тим Карри, Вупи Голдберг, Майкл Йорк, Эдвард Эснер, Фрэнк Уэлкер, Кэт Сауси, Джоди Бенсон, Джон Гарри, Эмик Байрэм, Йен Уиткомб- | Релиз: -Описание: Похоронив своего давнего друга и партнера по бизнесу, Эбенезер Скрудж, и так не отличавшийся особой душевной добротой, впал в уныние и возненавидел весь окружающий мир. Особенно достается его верному и безответному помощнику Бобу Крэтчиту. Но когда в Рождественскую ночь Скруджу являются Духи Рождества, они открывают ему глаза на его прошлое, настоящее и будущее. Скрудж понимает, что в погоне за богатством лишился самого главного: счастья любить и быть любимым. Умоляя Духов дать ему второй шанс, Скрудж обещает изменить образ жизни и навсегда «впустить Рождество к себе в сердце»…-Доп. информация:
    - За запись дубляжа с т/к "Gulli" спасибо Lexa1988-L1.
    - За исходную оцифровку русской звуковой дорожки с переводом Юрия Живова спасибо duckling-by2.
    - Работа со звуком, кодирование видео - xfiles.-Семпл: http://sendfile.su/1191563-Качество: DVDRip-AVC
    Формат: MKV
    Видео: 706x480 (4:3) @ 628x480, 23.976 fps, AVC, ~1861 Kbps, 0.229 bits/pixel
    Аудио 1: Русский, AC3, 2/0 (L,R) ch, 192 kbps - Дублированный | Канал Gulli
    Аудио 1: Русский, AC3, 2/0 (L,R) ch, 192 kbps - Одноголосый закадровый | Юрий Живов
    Аудио 2: English, AC3, 2/0 (L,R) ch, 192 kbps
    Субтитры: отсутствуют
    MediaInfo

    x264 log

    x264 [info]: 706x480p 8:9 @ 24000/1001 fps (cfr)
    x264 [info]: using SAR=8/9
    x264 [info]: using cpu capabilities: MMX2 SSE2Fast SSSE3 SSE4.2 AVX
    x264 [info]: profile High, level 4.0
    x264 [info]: cabac=1 ref=16 deblock=1:-2:-1 analyse=0x3:0x133 me=umh subme=11 psy=1 fade_compensate=0.00 psy_rd=1.00:0.00 mixed_ref=1 me_range=48 chroma_me=1 trellis=2 8x8dct=1 cqm=0 deadzone=21,11 fast_pskip=0 chroma_qp_offset=-2 threads=12 lookahead_threads=3 sliced_threads=0 nr=0 decimate=1 interlaced=0 bluray_compat=0 constrained_intra=0 fgo=0 bframes=16 b_pyramid=2 b_adapt=2 b_bias=0 direct=3 weightb=1 open_gop=0 weightp=2 keyint=250 keyint_min=23 scenecut=40 intra_refresh=0 rc=crf mbtree=0 crf=17.0000 qcomp=0.60 qpmin=0 qpmax=69 qpstep=4 ip_ratio=1.40 pb_ratio=1.30 aq=1:0.90
    x264 [info]: frame I:893 Avg QP:16.70 size: 63348
    x264 [info]: frame P:25214 Avg QP:17.94 size: 22555
    x264 [info]: frame B:74472 Avg QP:20.10 size: 5040
    x264 [info]: consecutive B-frames: 2.9% 3.8% 12.2% 34.1% 28.8% 11.0% 3.7% 1.6% 0.6% 0.7% 0.1% 0.2% 0.1% 0.1% 0.0% 0.0% 0.1%
    x264 [info]: mb I I16..4: 0.7% 81.3% 18.0%
    x264 [info]: mb P I16..4: 0.4% 9.3% 1.3% P16..4: 28.5% 32.4% 20.3% 3.2% 0.4% skip: 4.3%
    x264 [info]: mb B I16..4: 0.1% 0.6% 0.1% B16..8: 28.3% 15.7% 4.0% direct: 5.6% skip:45.6% L0:39.3% L1:48.0% BI:12.7%
    x264 [info]: 8x8 transform intra:82.1% inter:60.1%
    x264 [info]: direct mvs spatial:100.0% temporal:0.0%
    x264 [info]: coded y,uvDC,uvAC intra: 91.2% 95.0% 81.9% inter: 26.0% 24.0% 7.8%
    x264 [info]: i16 v,h,dc,p: 69% 10% 8% 13%
    x264 [info]: i8 v,h,dc,ddl,ddr,vr,hd,vl,hu: 11% 10% 15% 11% 10% 11% 9% 12% 11%
    x264 [info]: i4 v,h,dc,ddl,ddr,vr,hd,vl,hu: 9% 16% 4% 10% 13% 13% 12% 11% 12%
    x264 [info]: i8c dc,h,v,p: 44% 24% 19% 12%
    x264 [info]: Weighted P-Frames: Y:15.4% UV:9.0%
    x264 [info]: ref P L0: 47.5% 9.6% 17.4% 5.3% 4.6% 3.2% 2.9% 1.5% 1.4% 1.2% 1.2% 1.0% 0.9% 0.8% 0.8% 0.6%
    x264 [info]: ref B L0: 77.9% 11.2% 3.4% 1.9% 1.2% 1.0% 0.7% 0.6% 0.4% 0.4% 0.3% 0.3% 0.2% 0.2% 0.2%
    x264 [info]: ref B L1: 95.8% 4.2%
    x264 [info]: kb/s:1908.18
    x264 [info]: encoded 100579 frames, 10.47 fps, 1908.18 kb/s, duration 2:40:07.73
    GeneralUnique ID : 213776896234156630782822394977394454041 (0xA0D3EEBE0ECEB78EA60B949549E16E19)Complete name : A.Christmas.Carol.1997.DVDRip-rutracker.xfiles.mkvFormat : MatroskaFormat version : Version 4 / Version 2File size : 1.21 GiBDuration : 1h 9mnOverall bit rate : 2 487 KbpsMovie name : A.Christmas.Carol.1997.DVDRip-rutracker.xfilesEncoded date : UTC 2016-01-09 16:37:02Writing application : mkvmerge v8.3.0 ('Over the Horizon') 64bitWriting library : libebml v1.3.1 + libmatroska v1.4.2Cover : YesAttachments : Cover.jpg / x264.log
    VideoID : 1Format : AVCFormat/Info : Advanced Video CodecFormat profile : High@L4Format settings, CABAC : YesFormat settings, ReFrames : 16 framesCodec ID : V_MPEG4/ISO/AVCDuration : 1h 9mnBit rate : 1 861 KbpsWidth : 706 pixelsHeight : 480 pixelsDisplay aspect ratio : 4:3Frame rate mode : ConstantFrame rate : 23.976 (24000/1001) fpsColor space : YUVChroma subsampling : 4:2:0Bit depth : 8 bitsScan type : ProgressiveBits/(Pixel*Frame) : 0.229Stream size : 931 MiB (75%)Title : http://perectracker.org/viewtopic.php?t=5144884Writing library : x264 core 148 r2638kMod 7599210Encoding settings : cabac=1 / ref=16 / deblock=1:-2:-1 / analyse=0x3:0x133 / me=umh / subme=11 / psy=1 / fade_compensate=0.00 / psy_rd=1.00:0.00 /mixed_ref=1 / me_range=48 / chroma_me=1 / trellis=2 / 8x8dct=1 / cqm=0 / deadzone=21,11 / fast_pskip=0 / chroma_qp_offset=-2 / threads=12 / lookahead_threads=3 /sliced_threads=0 / nr=0 / decimate=1 / interlaced=0 / bluray_compat=0 / constrained_intra=0 / fgo=0 / bframes=16 / b_pyramid=2 / b_adapt=2 / b_bias=0 / direct=3 /weightb=1 / open_gop=0 / weightp=2 / keyint=250 / keyint_min=23 / scenecut=40 / intra_refresh=0 / rc=crf / mbtree=0 / crf=17.0000 / qcomp=0.60 / qpmin=0 / qpmax=69 /qpstep=4 / ip_ratio=1.40 / pb_ratio=1.30 / aq=1:0.90Language : EnglishDefault : YesForced : No
    Audio #1ID : 2Format : AC-3Format/Info : Audio Coding 3Mode extension : CM (complete main)Format settings, Endianness : BigCodec ID : A_AC3Duration : 1h 9mnBit rate mode : ConstantBit rate : 192 KbpsChannel(s) : 2 channelsChannel positions : Front: L RSampling rate : 48.0 KHzFrame rate : 31.250 fps (1536 spf)Compression mode : LossyStream size : 96.0 MiB (8%)Title : Дубляж | Канал "Gulli"Language : RussianDefault : YesForced : No
    Audio #2ID : 3Format : AC-3Format/Info : Audio Coding 3Mode extension : CM (complete main)Format settings, Endianness : BigCodec ID : A_AC3Duration : 1h 9mnBit rate mode : ConstantBit rate : 192 KbpsChannel(s) : 2 channelsChannel positions : Front: L RSampling rate : 48.0 KHzFrame rate : 31.250 fps (1536 spf)Compression mode : LossyStream size : 96.0 MiB (8%)Title : Закадровый | Юрий ЖивовLanguage : RussianDefault : NoForced : No
    Audio #3ID : 4Format : AC-3Format/Info : Audio Coding 3Format profile : Dolby DigitalMode extension : CM (complete main)Format settings, Endianness : BigCodec ID : A_AC3Duration : 1h 9mnBit rate mode : ConstantBit rate : 192 KbpsChannel(s) : 2 channelsChannel positions : Front: L RSampling rate : 48.0 KHzFrame rate : 31.250 fps (1536 spf)Compression mode : LossyStream size : 96.0 MiB (8%)Title : OriginalLanguage : EnglishDefault : NoForced : No
    Menu00:00:00.000 : en:Chapter 100:05:43.500 : en:Chapter 200:11:54.500 : en:Chapter 300:16:29.900 : en:Chapter 400:22:53.400 : en:Chapter 500:29:28.900 : en:Chapter 600:37:11.267 : en:Chapter 700:41:48.267 : en:Chapter 800:52:05.201 : en:Chapter 900:56:56.201 : en:Chapter 1000:59:24.834 : en:Chapter 1101:04:12.334 : en:Chapter 12

    Скриншоты

    Скачать .torrent

    Скачать торрент-файл бесплатно и на максимальной скорости!

    Как скачивать? · Что такое торрент? · Рейтинг и ограничения

    !ВНИМАНИЕ!
    Сайт не распространяет и не хранит электронные версии произведений, а занимается лишь лишь предоставлением доступа к создаваемому пользователями каталогу ссылок на торрент-файлы, которые содержат только списки хеш-сумм, убедительная просьба с жалобами обращаться напрямую к пользователю. Файлы для обмена на трекере предоставлены пользователями сайта, и администрация не несёт ответственности за их содержание. Просьба не заливать файлы, защищенные авторскими правами, а также файлы нелегального содержания!


    _________________
    [Профиль] [ЛС]
    Показать сообщения:    
    Ответить на тему

    Текущее время: Сегодня, в 10:15

    Часовой пояс: GMT + 2



    Вы не можете начинать темы
    Вы не можете отвечать на сообщения
    Вы не можете редактировать свои сообщения
    Вы не можете удалять свои сообщения
    Вы не можете голосовать в опросах
    Вы не можете прикреплять файлы к сообщениям
    Вы не можете скачивать файлы