BitTorrentTracker PerecTracker.org
BitTorrentTracker PerecTracker.org
    
Регистрация  ·  Вход
 
 · 
Забыли пароль?

  • Индекс Волшебства / Toaru Majutsu no Index [special] [4 из 4] [Без хардсаба] [RUS(int), JAP, SUB] [2009 г., приключения, комедия, мистика, фантастика, DVDRip][HWP]

    Ответить на тему
     
    Автор Сообщение

    Columb

    Создавать темы 28-Авг-2013 20:18

           

    [Цитировать]

    Индекс Волшебства / Toaru Majutsu no Index-tan
    Страна: Япония
    Год выпуска: 2009 г.
    Жанр: приключения, комедия, мистика, фантастика
    Тип: special
    Продолжительность: 4 эп. 8 м. 24 с.
    Режиссер: Нисикиори Хироси
    Студия:

    Релиз GSGroup
    Качество: DVDRip
    Тип релиза: Без хардсаба
    Формат видео: AVI
    Видео: XviD, 1280 Кбит/сек, 704x396, 23,976 кадра/сек, 8 бит
    Аудио: AC-3, 192 Кбит/сек, 48,0 КГц, 2 канала Язык Русский (в составе контейнера) ; Озвучка: Persona99
    Аудио 2: AC-3, 192 Кбит/сек, 48,0 КГц, 2 канала Язык Японский ; Озвучка 2: оригинал
    Субтитры:внешние srt и ASS
    1-2 Переводчик/Перевод песен/Оформление: Sora_P3_Heaven [2S-Shoujo]
    3-4 Перевод и оформление: Матадор
    Редактор/Тайм-код/Оформление: Stan WarHammer
    Офорсмление темы релиза: starcrafter24

    Подробные тех. данные

    Общее
    Полное имя : E:\анииме с русским звуком\To Aru Majutsu no Index-tan\01_Toaru Majutsu no Index-tan [Persona99](704x396.XviD).rus.jap.avi
    Формат : AVI
    Формат/Информация : Audio Video Interleave
    Размер файла : 101 Мбайт
    Продолжительность : 8 м. 24 с.
    Общий поток : 1678 Кбит/сек
    Программа кодирования : VirtualDubMod 1.5.10.2 (build 2540/release)
    Библиотека кодирования : VirtualDubMod build 2540/release
    Видео
    Идентификатор : 0
    Формат : MPEG-4 Visual
    Профиль формата : Advanced Simple@L5
    Параметр BVOP формата : 2
    Параметр QPel формата : Нет
    Параметр GMC формата : Без точки перехода
    Параметр матрицы формата : Default (H.263)
    Идентификатор кодека : XVID
    Идентификатор кодека/Подсказка : XviD
    Продолжительность : 8 м. 24 с.
    Битрейт : 1280 Кбит/сек
    Ширина : 704 пикселя
    Высота : 396 пикселей
    Соотношение сторон : 16:9
    Частота кадров : 23,976 кадра/сек
    Цветовое пространство : YUV
    Субдискретизация насыщенности : 4:2:0
    Битовая глубина : 8 бит
    Тип развёртки : Прогрессивная
    Метод сжатия : С потерями
    Бит/(Пиксели*Кадры) : 0.191
    Размер потока : 77,0 Мбайт (76%)
    Библиотека кодирования : XviD 1.2.1 (UTC 2008-12-04)
    Аудио #1
    Идентификатор : 1
    Формат : AC-3
    Формат/Информация : Audio Coding 3
    Расширение режима : CM (complete main)
    Параметр Endianness формата : Big
    Идентификатор кодека : 2000
    Продолжительность : 8 м. 24 с.
    Вид битрейта : Постоянный
    Битрейт : 192 Кбит/сек
    Каналы : 2 канала
    Расположение каналов : Front: L R
    Частота : 48,0 КГц
    Битовая глубина : 16 бит
    Метод сжатия : С потерями
    Размер потока : 11,5 Мбайт (11%)
    Выравнивание : Разделение по промежуткам
    Продолжительность промежутка : 42 мс. (1,00 видеокадр)
    Время предзагрузки промежутка : 500 мс.
    Аудио #2
    Идентификатор : 2
    Формат : AC-3
    Формат/Информация : Audio Coding 3
    Расширение режима : CM (complete main)
    Параметр Endianness формата : Big
    Идентификатор кодека : 2000
    Продолжительность : 8 м. 24 с.
    Вид битрейта : Постоянный
    Битрейт : 192 Кбит/сек
    Каналы : 2 канала
    Расположение каналов : Front: L R
    Частота : 48,0 КГц
    Битовая глубина : 16 бит
    Метод сжатия : С потерями
    Размер потока : 11,5 Мбайт (11%)
    Выравнивание : Разделение по промежуткам
    Продолжительность промежутка : 42 мс. (1,00 видеокадр)
    Время предзагрузки промежутка : 500 мс.

    эпизоды

    1. A Certain Magical Index-tan
    2. A Certain Magical Index-tan 2
    3. A Certain Magical Index-tan 3
    4. A Certain Magical Index-tan 4

    Скриншоты

    Скачать .torrent

    Скачать торрент-файл бесплатно и на максимальной скорости!

    Как скачивать? · Что такое торрент? · Рейтинг и ограничения

    !ВНИМАНИЕ!
    Сайт не распространяет и не хранит электронные версии произведений, а занимается лишь лишь предоставлением доступа к создаваемому пользователями каталогу ссылок на торрент-файлы, которые содержат только списки хеш-сумм, убедительная просьба с жалобами обращаться напрямую к пользователю. Файлы для обмена на трекере предоставлены пользователями сайта, и администрация не несёт ответственности за их содержание. Просьба не заливать файлы, защищенные авторскими правами, а также файлы нелегального содержания!

    [Профиль] [ЛС]
    Показать сообщения:    
    Ответить на тему

    Текущее время: Сегодня, в 15:58

    Часовой пояс: GMT + 2



    Вы не можете начинать темы
    Вы не можете отвечать на сообщения
    Вы не можете редактировать свои сообщения
    Вы не можете удалять свои сообщения
    Вы не можете голосовать в опросах
    Вы не можете прикреплять файлы к сообщениям
    Вы не можете скачивать файлы