BitTorrentTracker PerecTracker.org
BitTorrentTracker PerecTracker.org
    
Регистрация  ·  Вход
 
 · 
Забыли пароль?

  • Бесконечно белый медведь / Infinitely Polar Bear (Майя Форбс / Maya Forbes) [2014, США, Драма, комедия, BDRip] MVO (BD CEE)

    Ответить на тему
     
    Автор Сообщение

    rechyn

    Создавать темы 09-Янв-2016 18:26

           

    [Цитировать]

    Бесконечно белый медведь / Infinitely Polar Bear-Год выпуска: 2014
    Выпущено: США / Bad Robot, KGB Media
    Жанр: драма, комедия
    Продолжительность: 01:28:00
    Перевод: Профессиональный (многоголосый закадровый) BD CEE |Лицензия|
    Cубтитры: нет-Режиссер:
    Майя Форбс / Maya Forbes-В ролях:
    Зои Салдана, Марк Руффало, Кейр Дуллеа, Уоллес Володарски, Имоджин Володарски, Эшли Ауфдерейде, Мэри О’Рурк, Брианн Брози, Адам В. Майэрсон, Уильям Ксифарас, Джорджия Лиман-Описание:
    Кэмерон пытается вернуть свою жену Мэгги. Ради этого он пробует взять на себя полную ответственность за их двух молодых дочерей, которые отнюдь не стараются облегчить ему задачу.-Релиз групп
    | | IMDB | КиноПоиск | Сэмпл |-Качество: BDRip [Infinitely.Polar.Bear.2014.COMPLETE.QC.BLURAY-4FR]
    Формат: AVI
    Видео: 704x400 (1.76:1), 23.976 fps, XviD build 67 ~1903 kbps avg, 0.28 bit/pixel
    Аудио: 48 kHz, AC3 Dolby Digital, 3/2 (L,C,R,l,r) + LFE ch, ~448 kbps avg-

    Скриншоты

    MediaInfo

    Общее
    Полное имя                               : D:\Beskonechno_belyi_medved`_2014_BDRip_by_Dalemake.avi
    Формат                                   : AVI
    Формат/Информация                        : Audio Video Interleave
    Размер файла                             : 1,45 Гбайт
    Продолжительность                        : 1 ч. 28 м.
    Общий поток                              : 2361 Кбит/сек
    Программа кодирования                    : VirtualDubMod 1.5.10.3 | www.virtualdub-fr.org || (build 2550/release)
    Библиотека кодирования                   : VirtualDubMod build 2550/release
    Видео
    Идентификатор                            : 0
    Формат                                   : MPEG-4 Visual
    Профиль формата                          : Advanced Simple@L5
    Параметр BVOP формата                    : 2
    Параметр QPel формата                    : Нет
    Параметр GMC формата                     : Без точки перехода
    Параметр матрицы формата                 : Выборочная
    Идентификатор кодека                     : XVID
    Идентификатор кодека/Подсказка           : XviD
    Продолжительность                        : 1 ч. 28 м.
    Битрейт                                  : 1903 Кбит/сек
    Ширина                                   : 704 пикселя
    Высота                                   : 400 пикселей
    Соотношение сторон                       : 16:9
    Частота кадров                           : 23,976 кадра/сек
    Цветовое пространство                    : YUV
    Субдискретизация насыщенности            : 4:2:0
    Битовая глубина                          : 8 бит
    Тип развёртки                            : Прогрессивная
    Метод сжатия                             : С потерями
    Бит/(Пиксели*Кадры)                      : 0.282
    Размер потока                            : 1,17 Гбайт (81%)
    Библиотека кодирования                   : XviD 67
    Аудио
    Идентификатор                            : 1
    Формат                                   : AC-3
    Формат/Информация                        : Audio Coding 3
    Расширение режима                        : CM (complete main)
    Параметр Endianness формата              : Big
    Идентификатор кодека                     : 2000
    Продолжительность                        : 1 ч. 28 м.
    Вид битрейта                             : Постоянный
    Битрейт                                  : 448 Кбит/сек
    Каналы                                   : 6 каналов
    Расположение каналов                     : Front: L C R, Side: L R, LFE
    Частота                                  : 48,0 КГц
    Битовая глубина                          : 16 бит
    Метод сжатия                             : С потерями
    Размер потока                            : 282 Мбайт (19%)
    Выравнивание                             : Разделение по промежуткам
    Продолжительность промежутка             : 42  мс. (1,00 видеокадр)
    Время предзагрузки промежутка            : 500  мс.
    -
    Скачать .torrent

    Скачать торрент-файл бесплатно и на максимальной скорости!

    Как скачивать? · Что такое торрент? · Рейтинг и ограничения

    !ВНИМАНИЕ!
    Сайт не распространяет и не хранит электронные версии произведений, а занимается лишь лишь предоставлением доступа к создаваемому пользователями каталогу ссылок на торрент-файлы, которые содержат только списки хеш-сумм, убедительная просьба с жалобами обращаться напрямую к пользователю. Файлы для обмена на трекере предоставлены пользователями сайта, и администрация не несёт ответственности за их содержание. Просьба не заливать файлы, защищенные авторскими правами, а также файлы нелегального содержания!


    _________________
    [Профиль] [ЛС]
    Показать сообщения:    
    Ответить на тему

    Текущее время: Сегодня, в 20:22

    Часовой пояс: GMT + 2



    Вы не можете начинать темы
    Вы не можете отвечать на сообщения
    Вы не можете редактировать свои сообщения
    Вы не можете удалять свои сообщения
    Вы не можете голосовать в опросах
    Вы не можете прикреплять файлы к сообщениям
    Вы не можете скачивать файлы