BitTorrentTracker PerecTracker.org
BitTorrentTracker PerecTracker.org
    
Регистрация  ·  Вход
 
 · 
Забыли пароль?

  • Визит / The Visit (М. Найт Шьямалан / M. Night Shyamalan) [2015, США, ужасы, триллер, BDRip-AVC] Dub + Sub (Rus, Ukr, Eng)

    Ответить на тему
     
    Автор Сообщение

    rechyn

    Создавать темы 09-Янв-2016 18:26

           

    [Цитировать]

    Визит
    The Visit
    «Любовь родственников не знает предела»

    Страна: США
    Жанр: ужасы, триллер
    Год выпуска: 2015
    Продолжительность: 01:33:54
    Перевод: Профессиональный (полное дублирование) [Лицензия BD CEE]
    Субтитры: русские (Forced), русские (Full), украинские (Full), английские (Full), английские (SDH)
    Оригинальная аудиодорожка: нет
    Режиссер: М. Найт Шьямалан / M. Night Shyamalan
    В ролях: Оливия ДеДжонг, Эд Оксенбульд, Дианна Данаган, Питер МакРобби, Кэтрин Хан, Селия Кинэн-Болджер, Самуэль Стриклен, Патрик Дарро, Хорхе Кордова, Стив Аннан, Бенджамин Кейнс, Оушен Джеймс
    Описание:
    Много лет назад она бежала из родительского дома без оглядки и с тех пор старалась не вспоминать события той самой ночи. Теперь у нее уже взрослые дети. Однажды они получают приглашения от бабушки и дедушки, которых никогда не видели прежде, и решают нанести им визит.
    Автор рипа: Stalker oK
    Сэмпл
    Качество видео: BDRip-AVC [HDCLUB / Blu-ray Disc / 1080p]
    Формат видео: MKV
    Видео кодек: AVC
    Аудио кодек: AC3
    Видео: 1780 Кбит/сек, 910x492 (1.850), 23,976 кадр/сек, AVC
    Аудио: русский, 448 Кбит/сек, 48 КГц, 16 бит, 5.1, AC3
    Навигация по главам: есть

    MediaInfo

    Общее
    Уникальный идентификатор : 251835517734052080033031553093431695740 (0xBD75C1A7C8A61049AB34A3A45773997C)
    Полное имя : M:\Rips2\The Visit\The.Visit.2015.BDRip-AVC.Dub.1.45Gb.stalkerok.new-team.mkv
    Формат : Matroska
    Версия формата : Version 4 / Version 2
    Размер файла : 1,46 Гбайт
    Продолжительность : 1 ч. 33 м.
    Общий поток : 2228 Кбит/сек
    Название фильма : The Visit (2015) (New-Team) (Rip by Stalker oK)
    Дата кодирования : UTC 2016-01-09 14:35:52
    Программа кодирования : mkvmerge v8.6.1 ('Flying') 64bit
    Библиотека кодирования : libebml v1.3.3 + libmatroska v1.4.4
    Видео
    Идентификатор : 1
    Формат : AVC
    Формат/Информация : Advanced Video Codec
    Профиль формата : High@L4.1
    Параметр CABAC формата : Да
    Параметр ReFrames формата : 14 кадров
    Идентификатор кодека : V_MPEG4/ISO/AVC
    Продолжительность : 1 ч. 33 м.
    Битрейт : 1780 Кбит/сек
    Ширина : 910 пикселей
    Высота : 492 пикселя
    Соотношение сторон : 1,85:1
    Режим частоты кадров : Постоянный
    Частота кадров : 23,976 (24000/1001) кадра/сек
    Цветовое пространство : YUV
    Субдискретизация насыщенности : 4:2:0
    Битовая глубина : 8 бит
    Тип развёртки : Прогрессивная
    Бит/(Пиксели*Кадры) : 0.166
    Размер потока : 1,17 Гбайт (80%)
    Заголовок : The Visit (2015) (New-Team) (Rip by Stalker oK)
    Библиотека кодирования : x264 core 148 r2638kMod 7599210
    Настройки программы : cabac=1 / ref=14 / deblock=1:-3:-3 / analyse=0x3:0x133 / me=umh / subme=11 / psy=1 / fade_compensate=0.00 / psy_rd=1.00:0.10 / mixed_ref=1 / me_range=48 / chroma_me=1 / trellis=2 / 8x8dct=1 / cqm=0 / deadzone=21,11 / fast_pskip=0 / chroma_qp_offset=-3 / threads=12 / lookahead_threads=3 / sliced_threads=0 / nr=0 / decimate=0 / interlaced=0 / bluray_compat=0 / constrained_intra=0 / fgo=0 / bframes=15 / b_pyramid=2 / b_adapt=2 / b_bias=0 / direct=3 / weightb=1 / open_gop=0 / weightp=2 / keyint=240 / keyint_min=23 / scenecut=40 / intra_refresh=0 / rc_lookahead=60 / rc=2pass / mbtree=0 / bitrate=1780 / ratetol=1.0 / qcomp=0.70 / qpmin=0 / qpmax=69 / qpstep=4 / cplxblur=20.0 / qblur=0.5 / vbv_maxrate=50000 / vbv_bufsize=62500 / nal_hrd=none / filler=0 / ip_ratio=1.40 / pb_ratio=1.30 / aq=3:0.90
    Default : Да
    Forced : Нет
    Аудио
    Идентификатор : 2
    Формат : AC-3
    Формат/Информация : Audio Coding 3
    Расширение режима : CM (complete main)
    Параметр Endianness формата : Big
    Идентификатор кодека : A_AC3
    Продолжительность : 1 ч. 33 м.
    Вид битрейта : Постоянный
    Битрейт : 448 Кбит/сек
    Каналы : 6 каналов
    Расположение каналов : Front: L C R, Side: L R, LFE
    Частота : 48,0 КГц
    Частота кадров : 31,250 кадров/сек (1536 spf)
    Метод сжатия : С потерями
    Размер потока : 301 Мбайт (20%)
    Язык : Russian
    Default : Да
    Forced : Нет
    Текст #1
    Идентификатор : 3
    Формат : UTF-8
    Идентификатор кодека : S_TEXT/UTF8
    Идентификатор кодека/Информация : UTF-8 Plain Text
    Продолжительность : 1 ч. 30 м.
    Битрейт : 0 бит/сек
    Count of elements : 15
    Размер потока : 441 байт (0%)
    Заголовок : Forced
    Язык : Russian
    Default : Да
    Forced : Нет
    Текст #2
    Идентификатор : 4
    Формат : UTF-8
    Идентификатор кодека : S_TEXT/UTF8
    Идентификатор кодека/Информация : UTF-8 Plain Text
    Продолжительность : 1 ч. 32 м.
    Битрейт : 91 бит/сек
    Count of elements : 1139
    Размер потока : 62,3 Кбайт (0%)
    Заголовок : Full
    Язык : Russian
    Default : Нет
    Forced : Нет
    Текст #3
    Идентификатор : 5
    Формат : UTF-8
    Идентификатор кодека : S_TEXT/UTF8
    Идентификатор кодека/Информация : UTF-8 Plain Text
    Продолжительность : 1 ч. 32 м.
    Битрейт : 89 бит/сек
    Count of elements : 1140
    Размер потока : 61,0 Кбайт (0%)
    Язык : Ukrainian
    Default : Нет
    Forced : Нет
    Текст #4
    Идентификатор : 6
    Формат : UTF-8
    Идентификатор кодека : S_TEXT/UTF8
    Идентификатор кодека/Информация : UTF-8 Plain Text
    Продолжительность : 1 ч. 29 м.
    Битрейт : 55 бит/сек
    Count of elements : 1172
    Размер потока : 36,2 Кбайт (0%)
    Язык : English
    Default : Нет
    Forced : Нет
    Текст #5
    Идентификатор : 7
    Формат : UTF-8
    Идентификатор кодека : S_TEXT/UTF8
    Идентификатор кодека/Информация : UTF-8 Plain Text
    Продолжительность : 1 ч. 29 м.
    Битрейт : 62 бит/сек
    Count of elements : 1349
    Размер потока : 40,6 Кбайт (0%)
    Заголовок : SDH
    Язык : English
    Default : Нет
    Forced : Нет
    Меню
    00:00:00.000 : en:Chapter 1
    00:02:51.921 : en:Chapter 2
    00:06:38.356 : en:Chapter 3
    00:11:08.709 : en:Chapter 4
    00:17:11.947 : en:Chapter 5
    00:21:39.798 : en:Chapter 6
    00:25:45.752 : en:Chapter 7
    00:29:44.824 : en:Chapter 8
    00:34:24.854 : en:Chapter 9
    00:40:48.571 : en:Chapter 10
    00:44:42.012 : en:Chapter 11
    00:48:16.393 : en:Chapter 12
    00:52:34.734 : en:Chapter 13
    00:57:08.383 : en:Chapter 14
    01:00:54.108 : en:Chapter 15
    01:05:17.163 : en:Chapter 16
    01:09:08.185 : en:Chapter 17
    01:13:38.372 : en:Chapter 18
    01:23:58.908 : en:Chapter 19
    01:28:54.037 : en:Chapter 20

    Скриншоты

    Скачать .torrent

    Скачать торрент-файл бесплатно и на максимальной скорости!

    Как скачивать? · Что такое торрент? · Рейтинг и ограничения

    !ВНИМАНИЕ!
    Сайт не распространяет и не хранит электронные версии произведений, а занимается лишь лишь предоставлением доступа к создаваемому пользователями каталогу ссылок на торрент-файлы, которые содержат только списки хеш-сумм, убедительная просьба с жалобами обращаться напрямую к пользователю. Файлы для обмена на трекере предоставлены пользователями сайта, и администрация не несёт ответственности за их содержание. Просьба не заливать файлы, защищенные авторскими правами, а также файлы нелегального содержания!


    _________________
    [Профиль] [ЛС]
    Показать сообщения:    
    Ответить на тему

    Текущее время: Сегодня, в 16:45

    Часовой пояс: GMT + 2



    Вы не можете начинать темы
    Вы не можете отвечать на сообщения
    Вы не можете редактировать свои сообщения
    Вы не можете удалять свои сообщения
    Вы не можете голосовать в опросах
    Вы не можете прикреплять файлы к сообщениям
    Вы не можете скачивать файлы