BitTorrentTracker PerecTracker.org
BitTorrentTracker PerecTracker.org
    
Регистрация  ·  Вход
 
 · 
Забыли пароль?

  • В твоих венах / In Your Veins / I skuggan av värmen (Бета Гарделер / Beata Gardeler) [2009, Швеция, Драма, DVDRip] sub

    Ответить на тему
     
    Автор Сообщение

    Columb

    Создавать темы 28-Авг-2013 20:09

           

    [Цитировать]

    В твоих венах / In Your Veins / I skuggan av värmen
    Страна: Швеция
    Жанр: Драма
    Год выпуска: 2009
    Продолжительность: 1:28:44
    Перевод: Субтитры (pavel2asus)
    Cубтитры: русские
    Оригинальная аудиодорожка: шведский
    Режиссер: Бета Гарделер / Beata Gardeler
    В ролях: Малин Крепин, Юэль Киннаман, Малин Вулкано, Мартин Альяга
    Описание: Романтическая драма о девушке Еве, которая работает частным охранником. У Евы есть секрет: она - героиновая наркоманка. Всеми силами девушка пытается скрыть это от своего любимого человека Эрика - копа.
    Скачать сэмпл
    Качество видео: DVDRip
    Формат видео: AVI
    Видео: XviD, 624x336, 1.85:1, 25 fps, 971 Kbps
    Аудио: MP3, 48 KHz, 128 Kbps, 2 ch
    Формат субтитров: softsub (SRT)

    Пример субтитров

    15
    00:06:00,440 --> 00:06:05,195
    Ты должна убираться отсюда. Давай.
    Торопись!
    16
    00:06:07,280 --> 00:06:10,750
    Залезай в машину и ложись!
    17
    00:06:24,080 --> 00:06:28,676
    - Вы можете уезжать. Здесь никого нет.
    - А зачем тогда вы позвонили?
    18
    00:06:28,840 --> 00:06:32,469
    - Я ошиблась.
    - Ага...
    19
    00:06:32,640 --> 00:06:38,875
    - Мы всё же проверим...
    - Нет, всё в порядке. Я уже всё проверила.
    20
    00:06:39,040 --> 00:06:41,918
    - Вы уже успели всё это проверить?!
    - Мгм.
    21
    00:06:43,440 --> 00:06:48,116
    - Прошло всего три минуты, как сработала сигнализация.
    - Ну и что?
    22
    00:06:50,400 --> 00:06:55,155
    Могу я взглянуть на ваше удостоверение охранника?
    Вы не похожи на охранника.
    23
    00:06:55,320 --> 00:06:59,632
    - Вы всегда в своём духе, полицейские.
    - Всё же покажите ваше удостоверение.
    24
    00:07:10,680 --> 00:07:14,355
    - Ну, тогда мы поедем?
    - А ваше?
    25
    00:07:14,520 --> 00:07:17,034
    Я хочу увидеть ваше удостоверение.
    26
    00:07:27,840 --> 00:07:30,991
    Похоже на правду, да?
    27
    00:08:11,880 --> 00:08:17,876
    Взгляните! Я думаю, нужно что-то
    сделать с вашей раной.
    28
    00:08:23,000 --> 00:08:28,711
    - Эрик! Там кто-нибудь был?
    - Нет. Сигнализация сработала, наверно,
    из-за каких-нибудь наркоманов.
    29
    00:08:32,000 --> 00:08:34,594
    - Вам больно?
    - Нет.
    30
    00:08:43,920 --> 00:08:46,878
    Мне надо идти.
    31
    00:08:55,360 --> 00:09:00,150
    Ты могла хотя бы позвонить?
    После того, как ты вышла, разумеется.
    32
    00:09:00,320 --> 00:09:05,269
    Я знала, что с тобой всё в порядке.
    Что ты жива.
    33
    00:09:09,360 --> 00:09:13,876
    - Ты там была одна?
    - Нет, Томас сбежал, когда включилась сигнализация.
    34
    00:09:14,040 --> 00:09:17,191
    - Тот самый Томас?
    - Да.
    35
    00:09:19,120 --> 00:09:24,956
    - Ты всё с этой свиньёй?
    - Да, что-то вроде того.
    36
    00:09:26,760 --> 00:09:31,914
    Он в порядке. Смотри, что я
    у тебя стащила!

    MediaInfo

    General
    Complete name : D:\Фильмы\В твоих венах (2009)\В твоих венах.avi
    Format : AVI
    Format/Info : Audio Video Interleave
    File size : 704 MiB
    Duration : 1h 28mn
    Overall bit rate : 1 109 Kbps
    Writing application : FairUse Wizard - http://fairusewizard.com
    Writing library : VirtualDub build 32618/release
    Video
    ID : 0
    Format : MPEG-4 Visual
    Format profile : Simple@L5
    Format settings, BVOP : No
    Format settings, QPel : No
    Format settings, GMC : No warppoints
    Format settings, Matrix : Default (H.263)
    Codec ID : XVID
    Codec ID/Hint : XviD
    Duration : 1h 28mn
    Bit rate : 971 Kbps
    Width : 624 pixels
    Height : 336 pixels
    Display aspect ratio : 1.85:1
    Frame rate : 25.000 fps
    Color space : YUV
    Chroma subsampling : 4:2:0
    Bit depth : 8 bits
    Scan type : Progressive
    Compression mode : Lossy
    Bits/(Pixel*Frame) : 0.185
    Stream size : 616 MiB (88%)
    Writing library : XviD 64
    Audio
    ID : 1
    Format : MPEG Audio
    Format version : Version 1
    Format profile : Layer 3
    Mode : Joint stereo
    Mode extension : MS Stereo
    Codec ID : 55
    Codec ID/Hint : MP3
    Duration : 1h 28mn
    Bit rate mode : Constant
    Bit rate : 128 Kbps
    Channel(s) : 2 channels
    Sampling rate : 48.0 KHz
    Compression mode : Lossy
    Stream size : 81.2 MiB (12%)
    Alignment : Aligned on interleaves
    Interleave, duration : 40 ms (1.00 video frame)
    Interleave, preload duration : 504 ms
    Writing library : LAME3.97
    Encoding settings : -m j -V 4 -q 2 -lowpass 17 -b 128

    Скриншот c названием фильма

    Скриншоты

    Скачать .torrent

    Скачать торрент-файл бесплатно и на максимальной скорости!

    Как скачивать? · Что такое торрент? · Рейтинг и ограничения

    !ВНИМАНИЕ!
    Сайт не распространяет и не хранит электронные версии произведений, а занимается лишь лишь предоставлением доступа к создаваемому пользователями каталогу ссылок на торрент-файлы, которые содержат только списки хеш-сумм, убедительная просьба с жалобами обращаться напрямую к пользователю. Файлы для обмена на трекере предоставлены пользователями сайта, и администрация не несёт ответственности за их содержание. Просьба не заливать файлы, защищенные авторскими правами, а также файлы нелегального содержания!

    [Профиль] [ЛС]
    Показать сообщения:    
    Ответить на тему

    Текущее время: Сегодня, в 04:43

    Часовой пояс: GMT + 2



    Вы не можете начинать темы
    Вы не можете отвечать на сообщения
    Вы не можете редактировать свои сообщения
    Вы не можете удалять свои сообщения
    Вы не можете голосовать в опросах
    Вы не можете прикреплять файлы к сообщениям
    Вы не можете скачивать файлы