BitTorrentTracker PerecTracker.org
BitTorrentTracker PerecTracker.org
    
Регистрация  ·  Вход
 
 · 
Забыли пароль?

  • [ATV3] Ужастики / Goosebumps (Роб Леттерман / Rob Letterman ) [2015, США, Австралия , Фэнтези, комедия, приключения, WEB-DL, HD (1080p)] DUB + Original + sub (rus, eng)

    Ответить на тему
     
    Автор Сообщение

    Flirldrerve

    Создавать темы 09-Янв-2016 18:26

           

    [Цитировать]

    Ужастики / Goosebumps
    «The stories are alive»
    6.257 / 10 6.60 / 10
    -Год выпуска: 2015
    Страна: США, Австралия
    Жанр: Фэнтези, комедия, приключения
    Продолжительность: 01:43:17
    Перевод: Дублированный (iTunes)
    Оригинальная аудиодорожка: Есть
    Cубтитры: Русские форсированные, Русские, Английские
    Режиссёр: Роб Леттерман
    Сценарий: Даррен Лемке, Скотт Александер, Ларри Карацевски
    Продюсер: Дебора Форте, Нил Х. Мориц, Билл Баннерман
    Оператор: Хавьер Агирресаробе
    Композитор: Дэнни Элфман
    Художник: Шон Хаворт, Доун Снайдер, Патрик М. Салливан мл.
    Монтаж: Джим Мэй
    В ролях: Дилан Миннетт, Одейя Раш, Эми Райан, Райан Ли, Джиллиан Белл, Джек Блэк, Кен Марино, Холстон Сейдж, Стивен Крюгер, Кит А. Болден
    Бюджет: $58 000 000
    Сборы в США: $79 370 088
    Сборы в мире: + $41 700 000 = $121 070 088
    Сборы в России: $2 469 898
    Мировая премьера: 3 октября 2015
    Премьера (РФ): 3 декабря 2015, «WDSSPR»
    Описание: Кошмары бывают разные. Вечно голодные оборотни, плохо воспитанные зомби, агрессивные садовые гномы и даже гигантский неуравновешенный снежный человек… Все эти фантастические монстры и монстрики многие годы магическим образом удерживались на страницах знаменитых бестселлеров «Ужастики», пока по воле случая их не выпустили на свободу в реальный мир.-Качество исходника: WEB-DL 1080p (BlueBird)
    Качество: WEB-DL
    Тип: HD (1080p)
    Контейнер: M4V
    Видео: H.264, 1920x794, 2.40:1, 4 452 Kbps, 23.976 (23976/1000) fps
    Аудио 1: Русский/Дублированный (iTunes), AAC / 2.0 / 157 Kbps / 48.0 KHz
    Аудио 2: Английский/Оригинальная дорожка , AAC / 2.0 / 157 Kbps / 48.0 KHz
    Аудио 3: Русский/Дублированный (iTunes), AC-3 / 5.1 / 384 Kbps / 48.0 KHz
    Субтитры 1: Русские форсированные
    Субтитры 2: Русские полные
    Субтитры 3: Английские полные
    -

    iTunes Meta Tags

    Sort Name: Goosebumps
    XID: Apple:vendor_id:2015-463237
    contentID: 1044876394
    Screenwriters: Даррен Лемке, Скотт Александер, Ларри Карацевски
    Producers: Дебора Форте, Нил Х. Мориц, Билл Баннерман
    Director: Роб Леттерман
    Cast: Дилан Миннетт, Одейя Раш, Эми Райан, Райан Ли, Джиллиан Белл, Джек Блэк, Кен Марино, Холстон Сейдж, Стивен Крюгер, Кит А. Болден, Пётр Коврижных, Мария Борисова, Любовь Германова, Николай Быстров, Александр Груздев
    Studio: Columbia Pictures
    Rating: 3
    Long Description: Кошмары бывают разные. Вечно голодные оборотни, плохо воспитанные зомби, агрессивные садовые гномы и даже гигантский неуравновешенный снежный человек...
    Все эти фантастические монстры и монстрики многие годы магическим образом удерживались на страницах знаменитых бестселлеров "Ужастики", пока по воле случая их не выпустили на свободу в реальный мир.
    Description: Кошмары бывают разные. Вечно голодные оборотни, плохо воспитанные зомби, агрессивные садовые гномы и даже гигантский неуравновешенный снежный человек...
    Все эти фантастические монстры и монстрики многие годы магическим образом удерживались на страницах знаменитых бестселлеров "Ужастики", пока по воле случая их не выпустили на свободу в реальный мир.
    Release Date: 2015-10-03T08:00:00Z
    Genre: Kids & Family
    Artist: Rob Letterman
    Name: Goosebumps

    MediaInfo

    General
    Complete name : /Users/imac/HandBrake/Goosebumps.WEB-DL.1080p.m4v
    Format : MPEG-4
    Codec ID : M4V  (M4V /M4A /mp42/isom)
    File size : 3.72 GiB
    Duration : 1h 43mn
    Overall bit rate mode : Variable
    Overall bit rate : 5 159 Kbps
    Movie name : Goosebumps
    Performer : Rob Letterman
    Director : Роб Леттерман
    Actor : Дилан Миннетт / Одейя Раш / Эми Райан / Райан Ли / Джиллиан Белл / Джек Блэк / Кен Марино / Холстон Сейдж / Стивен Крюгер / Кит А. Болден / Пётр Коврижных / Мария Борисова / Любовь Германова / Николай Быстров / Александр Груздев
    Screenplay by : Даррен Лемке / Скотт Александер / Ларри Карацевски
    Producer : Дебора Форте / Нил Х. Мориц / Билл Баннерман
    Production studio : Columbia Pictures
    Genre : Kids & Family
    ContentType : Short Film
    Description : Кошмары бывают разные. Вечно голодные оборотни, плохо воспитанные зомби, агрессивные садовые гномы и даже гигантский неуравновешенный снежный человек...  / Все эти фантастические монстры и монстрики многие годы магическим образом удерживались на страницах знаменитых бестселлеров "Ужастики", пока по воле случая их не выпустили на свободу в реальный мир.
    Recorded date : UTC 2015-10-03 08:00:00
    Encoded date : UTC 2016-01-09 10:05:40
    Tagged date : UTC 2016-01-09 10:09:05
    Cover : Yes
    Rating : None
    Title/Sort : Goosebumps
    LongDescription : Кошмары бывают разные. Вечно голодные оборотни, плохо воспитанные зомби, агрессивные садовые гномы и даже гигантский неуравновешенный снежный человек...  / Все эти фантастические монстры и монстрики многие годы магическим образом удерживались на страницах знаменитых бестселлеров "Ужастики", пока по воле случая их не выпустили на свободу в реальный мир.
    AppleStoreCatalogID : 1044876394
    Vendor : Apple:vendor_id:2015-463237
    ContentRating : mpaa|PG|200|
    Video #1
    ID : 1
    Format : AVC
    Format/Info : Advanced Video Codec
    Format profile : High@L4
    Format settings, CABAC : Yes
    Format settings, ReFrames : 5 frames
    Codec ID : avc1
    Codec ID/Info : Advanced Video Coding
    Duration : 1h 43mn
    Bit rate : 4 452 Kbps
    Width : 1 920 pixels
    Height : 794 pixels
    Display aspect ratio : 2.40:1
    Frame rate mode : Variable
    Frame rate : 23.976 (23976/1000) fps
    Minimum frame rate : 23.810 fps
    Maximum frame rate : 24.390 fps
    Color space : YUV
    Chroma subsampling : 4:2:0
    Bit depth : 8 bits
    Scan type : Progressive
    Bits/(Pixel*Frame) : 0.122
    Stream size : 3.21 GiB (86%)
    Title : Main Program
    Language : English
    Encoded date : UTC 2016-01-09 10:05:40
    Tagged date : UTC 2016-01-09 10:06:52
    Color range : Limited
    Color primaries : BT.709
    Transfer characteristics : BT.709
    Matrix coefficients : BT.709
    Menus : 8,9
    Video #2
    ID : 9
    Format : JPEG
    Codec ID : jpeg
    Duration : 1h 43mn
    Bit rate mode : Variable
    Bit rate : 636 bps
    Width : 640 pixels
    Height : 264 pixels
    Display aspect ratio : 2.40:1
    Frame rate mode : Variable
    Frame rate : 0.003 fps
    Minimum frame rate : 0.001 fps
    Maximum frame rate : 0.006 fps
    Color space : YUV
    Chroma subsampling : 4:2:0
    Bit depth : 8 bits
    Compression mode : Lossy
    Bits/(Pixel*Frame) : 1.255
    Stream size : 414 KiB (0%)
    Title : Chapter Images
    Language : English
    Default : No
    Encoded date : UTC 2016-01-09 10:06:57
    Tagged date : UTC 2016-01-09 10:06:58
    Menu For : 1
    Audio #1
    ID : 2
    Format : AAC
    Format/Info : Advanced Audio Codec
    Format profile : LC
    Codec ID : 40
    Duration : 1h 43mn
    Bit rate mode : Variable
    Bit rate : 157 Kbps
    Maximum bit rate : 250 Kbps
    Channel(s) : 2 channels
    Channel positions : Front: L R
    Sampling rate : 48.0 KHz
    Frame rate : 46.875 fps (1024 spf)
    Compression mode : Lossy
    Stream size : 116 MiB (3%)
    Title : Russian Stereo
    Language : Russian
    Default : Yes
    Alternate group : 1
    Encoded date : UTC 2016-01-09 10:05:40
    Tagged date : UTC 2016-01-09 10:05:46
    Fallback From : 4
    Subtitles : 5,6
    Audio #2
    ID : 3
    Format : AAC
    Format/Info : Advanced Audio Codec
    Format profile : LC
    Codec ID : 40
    Duration : 1h 43mn
    Bit rate mode : Variable
    Bit rate : 157 Kbps
    Maximum bit rate : 249 Kbps
    Channel(s) : 2 channels
    Channel positions : Front: L R
    Sampling rate : 48.0 KHz
    Frame rate : 46.875 fps (1024 spf)
    Compression mode : Lossy
    Stream size : 116 MiB (3%)
    Title : English Stereo
    Language : English
    Default : No
    Alternate group : 1
    Encoded date : UTC 2016-01-09 10:05:40
    Tagged date : UTC 2016-01-09 10:05:46
    Audio #3
    ID : 4
    Format : AC-3
    Format/Info : Audio Coding 3
    Mode extension : CM (complete main)
    Format settings, Endianness : Big
    Codec ID : ac-3
    Duration : 1h 43mn
    Bit rate mode : Constant
    Bit rate : 384 Kbps
    Channel(s) : 6 channels
    Channel positions : Front: L C R, Side: L R, LFE
    Sampling rate : 48.0 KHz
    Frame rate : 31.250 fps (1536 spf)
    Bit depth : 16 bits
    Compression mode : Lossy
    Stream size : 284 MiB (7%)
    Title : Russian DD 5.1
    Language : Russian
    Default : Inherited From: 2
    Alternate group : 1
    Encoded date : UTC 2016-01-09 10:05:40
    Tagged date : UTC 2016-01-09 10:05:45
    Fallback To : 2
    Subtitles : 5,6
    Text #1
    ID : 5
    Format : Timed Text
    Muxing mode : sbtl
    Codec ID : tx3g
    Duration : 44mn 47s
    Bit rate mode : Variable
    Bit rate : 0 bps
    Stream size : 112 Bytes (0%)
    Title : Russian forced
    Language : Russian
    Default : Yes
    Forced : Yes
    Alternate group : 2
    Encoded date : UTC 2016-01-09 10:05:40
    Tagged date : UTC 2016-01-09 10:05:40
    Subtitles For : 2,4
    Full Alternative : 6
    Text #2
    ID : 6
    Format : Timed Text
    Muxing mode : sbtl
    Codec ID : tx3g
    Duration : 1h 36mn
    Bit rate mode : Variable
    Bit rate : 96 bps
    Stream size : 67.8 KiB (0%)
    Title : Russian full
    Language : Russian
    Default : No
    Forced : No
    Alternate group : 2
    Encoded date : UTC 2016-01-09 10:05:40
    Tagged date : UTC 2016-01-09 10:05:40
    Subtitles For : 2,4
    Forced Alternative : 5
    Text #3
    ID : 7
    Format : Timed Text
    Muxing mode : sbtl
    Codec ID : tx3g
    Duration : 1h 35mn
    Bit rate mode : Variable
    Bit rate : 67 bps
    Stream size : 46.5 KiB (0%)
    Title : English full
    Language : English
    Default : No
    Forced : No
    Alternate group : 2
    Encoded date : UTC 2016-01-09 10:05:40
    Tagged date : UTC 2016-01-09 10:06:52
    Menu #1
    00:00:00.000 : 1
    00:05:08.000 : 2
    00:11:47.000 : 3
    00:17:54.000 : 4
    00:23:23.000 : 5
    00:31:52.000 : 6
    00:38:29.000 : 7
    00:44:36.000 : 8
    00:51:09.000 : 9
    00:57:27.000 : 10
    01:03:38.000 : 11
    01:06:34.000 : 12
    01:12:18.000 : 13
    01:20:01.000 : 14
    01:24:57.000 : 15
    01:31:09.000 : 16
    Menu #2
    ID : 8
    Codec ID : text
    Duration : 1h 43mn
    Language : English
    Encoded date : UTC 2016-01-09 10:06:52
    Tagged date : UTC 2016-01-09 10:06:52
    Menu For : 1
    00:00:00.000 : 1
    00:05:08.000 : 2
    00:11:47.000 : 3
    00:17:54.000 : 4
    00:23:23.000 : 5
    00:31:52.000 : 6
    00:38:29.000 : 7
    00:44:36.000 : 8
    00:51:09.000 : 9
    00:57:27.000 : 10
    01:03:38.000 : 11
    01:06:34.000 : 12
    01:12:18.000 : 13
    01:20:01.000 : 14
    01:24:57.000 : 15
    01:31:09.000 : 16
    Bit rate mode : VBR

    Скриншоты

    -

    Релиз подготовлен для просмотра на Apple TV, iPad, iPhone, iPod Touch.
    Для просмотра данного релиза на компьютере с ОС Windows рекомендуется использовать VLC media player
    Скачать .torrent

    Скачать торрент-файл бесплатно и на максимальной скорости!

    Как скачивать? · Что такое торрент? · Рейтинг и ограничения

    !ВНИМАНИЕ!
    Сайт не распространяет и не хранит электронные версии произведений, а занимается лишь лишь предоставлением доступа к создаваемому пользователями каталогу ссылок на торрент-файлы, которые содержат только списки хеш-сумм, убедительная просьба с жалобами обращаться напрямую к пользователю. Файлы для обмена на трекере предоставлены пользователями сайта, и администрация не несёт ответственности за их содержание. Просьба не заливать файлы, защищенные авторскими правами, а также файлы нелегального содержания!


    _________________
    [Профиль] [ЛС]
    Показать сообщения:    
    Ответить на тему

    Текущее время: Сегодня, в 06:36

    Часовой пояс: GMT + 2



    Вы не можете начинать темы
    Вы не можете отвечать на сообщения
    Вы не можете редактировать свои сообщения
    Вы не можете удалять свои сообщения
    Вы не можете голосовать в опросах
    Вы не можете прикреплять файлы к сообщениям
    Вы не можете скачивать файлы