BitTorrentTracker PerecTracker.org
BitTorrentTracker PerecTracker.org
    
Регистрация  ·  Вход
 
 · 
Забыли пароль?

  • Цветы / Loreak / Flowers (Хон Гараньо / Jon Garaño, Хосе Мария Гоэнага / Jose Mari Goenaga) [2014, Испания, драма, HDRip] 2xSub (Rus, Eng) + Original Baq

    Ответить на тему
     
    Автор Сообщение

    rechyn

    Создавать темы 09-Янв-2016 10:13

           

    [Цитировать]

    Цветы / Loreak / Flowers
    «Solo son flores»
    -Страна: Испания
    Студия: Departamento de Cultura del Gobierno Vasco, Euskal Telebista, Euskaltel, Instituto de la Cinematografía y de las Artes Audiovisuales (ICAA), Irusoin S.A., Moriarti Produkzioak, Televisión Española (TVE)
    Жанр: драма
    Год выпуска: 2014
    Продолжительность: 01:40:01
    Перевод: Субтитры (dicembre)
    Cубтитры: русские, английские
    Оригинальная аудиодорожка: баскская
    Режиссер: Хон Гараньо, Хосе Мария Гоэнага / Jon Garaño, Jose Mari Goenaga
    В ролях: Ициар Итуньо, Нагоре Арамбуру, Ициар Айспуру, Хосеан Бенгоэчеа, Эгоиц Ласа, Ане Габарайн, Хосе Рамон Сороис, Хосе Мария Берасатеги, Mikel Laskurain, Мариасун Пагоага
    Описание: Фильм повествует о женщине по имени Ана, чья скучная жизнь абсолютно не радует её, однако всё меняется, когда каждую неделю, в одно и то же время кто-то присылает ей прекрасные букеты цветов.

    Тип релиза: HDRip 720p [Neon_project]
    Контейнер: AVI
    Видео: 688x288 (2.39:1), 24 fps, XviD build 50 ~842 kbps avg, 0.18 bit/pixel
    Аудио: 48 kHz, AC3 Dolby Digital, 2/0 (L,R) ch, ~192 kbps (баскская)
    Формат субтитров: softsub (SRT)

    MediaInfo

    \Loreak.2014.HDRip\Loreak.2014.HDRip.avi General Complete name : \Loreak.2014.HDRip\Loreak.2014.HDRip.avi Format : AVI Format/Info : Audio Video Interleave File size : 747 MiB Duration : 1h 40mn Overall bit rate : 1 044 Kbps Movie name : Цветы / Loreak / Flowers Director : Хон Гараньо, Хосе Мария Гоэнага / Jon Garano, Jose Mari Goenaga Genre : драма Writing application : VirtualDubMod 1.5.10.2 (build 2540/release) Original source form/Name : фильм Comment : Neon_project Video #0 ID : 0 Format : MPEG-4 Visual Format profile : Advanced Simple@L5 Format settings, BVOP : 1 Format settings, QPel : No Format settings, GMC : No warppoints Format settings, Matrix : Custom Codec ID : XVID Codec ID/Hint : XviD Duration : 1h 40mn Bit rate : 843 Kbps Width : 688 pixels Height : 288 pixels Display aspect ratio : 2.40:1 Frame rate : 24.000 fps Color space : YUV Chroma subsampling : 4:2:0 Bit depth : 8 bits Scan type : Progressive Compression mode : Lossy Bits/(Pixel*Frame) : 0.177 Stream size : 603 MiB (81%) Writing library : XviD 1.2.1 (UTC 2008-12-04) Audio #1 ID : 1 Format : AC-3 Format/Info : Audio Coding 3 Mode extension : CM (complete main) Format settings, Endianness : Big Codec ID : 2000 Duration : 1h 40mn Bit rate mode : Constant Bit rate : 192 Kbps Channel(s) : 2 channels Channel positions : Front: L R Sampling rate : 48.0 KHz Bit depth : 16 bits Compression mode : Lossy Stream size : 137 MiB (18%) Alignment : Split accross interleaves Interleave, duration : 42 ms (1.00 video frame) Interleave, preload duration : 500 ms

    Пример субтитров

    29900:45:53,400 --> 00:45:57,260Заезжай в любое время илимы пришлем их тебе домой.
    30000:45:57,370 --> 00:45:59,866Мне они не нужны.Делайте с ними, что хотите.
    30100:46:00,080 --> 00:46:02,266- Что?- Мне они не нужны.
    30200:46:04,533 --> 00:46:06,700Ну ладно, как хочешь.
    30300:46:07,000 --> 00:46:11,466- Билет? - Что?- Билет нужен?
    30400:46:11,870 --> 00:46:14,800Нет-нет, спасибо. Пока.
    30500:46:50,000 --> 00:46:53,666- Так будет хорошо?- Да, очень хорошо.
    30600:49:08,959 --> 00:49:11,959<b><i>3 года спустя</b></i>
    30700:49:37,209 --> 00:49:41,167<b><i>Цветы для Беньята</b></i>
    30800:49:45,709 --> 00:49:50,251Бригада тебя не забудет.
    30900:50:37,800 --> 00:50:43,000Этого еще не хватало. Видела,что сделали ребята из бригады?
    31000:50:43,200 --> 00:50:47,333- Что сделали?- Поставили искусственные цветы.
    31100:50:48,866 --> 00:50:51,133- И что?- И что?!
    31200:50:51,400 --> 00:50:54,066Теперь им не придется менять их.
    31300:50:54,290 --> 00:50:56,666Это все равно, что не ставить цветы.
    31400:50:57,400 --> 00:51:03,400Сначала: "Ты всегда в нашем сердце,бригада не забудет..."
    31500:51:03,666 --> 00:51:06,200- А потом...- Мама, это нормально.
    31600:51:06,501 --> 00:51:08,126У всех своя жизнь.
    31700:51:08,500 --> 00:51:12,466У меня тоже своя жизнь,но это ничего не значит.
    31800:51:12,800 --> 00:51:19,600- Люди не умирают...- Да, знаю, пока мы их помним.
    31900:51:22,600 --> 00:51:24,266Вот именно.
    32000:52:06,400 --> 00:52:09,266Микель, далеко не уезжай!
    32100:52:09,466 --> 00:52:11,133И зачем мы сюда пришли.
    32200:52:11,933 --> 00:52:13,733Микелю нравится.

    Награды

    Скриншот c названием фильма

    Скриншоты


    Скачать .torrent

    Скачать торрент-файл бесплатно и на максимальной скорости!

    Как скачивать? · Что такое торрент? · Рейтинг и ограничения

    !ВНИМАНИЕ!
    Сайт не распространяет и не хранит электронные версии произведений, а занимается лишь лишь предоставлением доступа к создаваемому пользователями каталогу ссылок на торрент-файлы, которые содержат только списки хеш-сумм, убедительная просьба с жалобами обращаться напрямую к пользователю. Файлы для обмена на трекере предоставлены пользователями сайта, и администрация не несёт ответственности за их содержание. Просьба не заливать файлы, защищенные авторскими правами, а также файлы нелегального содержания!


    _________________
    [Профиль] [ЛС]
    Показать сообщения:    
    Ответить на тему

    Текущее время: Сегодня, в 12:34

    Часовой пояс: GMT + 2



    Вы не можете начинать темы
    Вы не можете отвечать на сообщения
    Вы не можете редактировать свои сообщения
    Вы не можете удалять свои сообщения
    Вы не можете голосовать в опросах
    Вы не можете прикреплять файлы к сообщениям
    Вы не можете скачивать файлы