BitTorrentTracker PerecTracker.org
BitTorrentTracker PerecTracker.org
    
Регистрация  ·  Вход
 
 · 
Забыли пароль?

  • Жизнь Пи / Life of Pi (Энг Ли / Ang Lee) [2012, США, Тайвань, Великобритания, фэнтези, драма, приключения, BDRip] Dub CEE + Sub Rus forced

    Ответить на тему
     
    Автор Сообщение

    rechyn

    Создавать темы 09-Янв-2016 10:13

           

    [Цитировать]

    Жизнь Пи / Life of Pi
    «Поверь в невозможное»
    -Страна: США, Тайвань, Великобритания / Fox 2000 Pictures, Haishang Films, Rhythm & Hues
    Жанр: фэнтези, драма, приключения
    Год выпуска: 2012
    Продолжительность: 02:06:59
    Перевод: Профессиональный (дублированный) лицензия CEE
    Cубтитры: русские (forced) на французскую и индийскую речь (внешние)
    Режиссёр: Энг Ли / Ang Lee
    В ролях: Сурадж Шарма, Ирфан Кхан, Рейф Сполл, Табу, Адиль Хуссэйн, Жерар Депардье, Аюш Тандон, Гаутам Белур, Аян Кхан, Мохд Аббас Халили, Джеймс Саито.
    Описание: Это история сына владельца одного индийского зоопарка, мальчика по имени Пи. Он познаёт мир, учится отстаивать свои принципы, ищет собственную дорогу к Богу, живя по канонам трёх конфессий, влюбляется… Но волей судьбы его семья вынуждена эмигрировать. На полпути между Индией и Канадой корабль терпит крушение, и Пи остается в шлюпке вместе с бенгальским тигром, гиеной, зеброй и орангутангом. Вокруг безбрежная водная гладь, а впереди — неизвестность…-Рейтинг
    imdb.com: 8.0 (409 841)
    kinopoisk.ru: 7.853 (141 606)
    MPAA: - Рекомендуется присутствие родителей-Сэмпл: http://multi-up.com/1083142-Качество видео: BDRip [BDRemux 1080p / perectracker.org]
    Формат видео: AVI
    Видео: XviD build 65, 704x384 (16:9), 23.976 fps, ~1257 kbps avg, 0.194 bit/pixel
    Аудио: 48 kHz, AC3 Dolby Digital, 3/2 (L,C,R,l,r) + LFE ch, ~384 kbps avg (Dub)
    Формат субтитров: softsub (SRT)
    -

    MediaInfo

    Общее
    Полное имя : D:\Life.of.Pi.2012.Dub.BDRip.1,46Gb.XviD.AC3\Life.of.Pi.2012.Dub.BDRip.1,46Gb.XviD.AC3.avi
    Формат : AVI
    Формат/Информация : Audio Video Interleave
    Размер файла : 1,46 Гбайт
    Продолжительность : 2 ч. 6 м.
    Общий поток : 1650 Кбит/сек
    Название фильма : Life of Pi 2012
    Режиссёр : Ang Lee
    Дата записи : 05.03.2014
    Программа кодирования : VirtualDubModRus 1.5.10.2 (build 2542/release)
    Библиотека кодирования : VirtualDubMod build 2542/release
    Правообладатель : Rutracker.org
    Примечание : MooN_WalkeR
    Видео
    Идентификатор : 0
    Формат : MPEG-4 Visual
    Профиль формата : Advanced Simple@L5
    Параметр BVOP формата : 1
    Параметр QPel формата : Нет
    Параметр GMC формата : Без точки перехода
    Параметр матрицы формата : Выборочная
    Идентификатор кодека : XVID
    Идентификатор кодека/Подсказка : XviD
    Продолжительность : 2 ч. 6 м.
    Битрейт : 1257 Кбит/сек
    Ширина : 704 пикселя
    Высота : 384 пикселя
    Соотношение сторон : 16:9
    Частота кадров : 23,976 кадра/сек
    Цветовое пространство : YUV
    Субдискретизация насыщенности : 4:2:0
    Битовая глубина : 8 бит
    Тип развёртки : Прогрессивная
    Метод сжатия : С потерями
    Бит/(Пиксели*Кадры) : 0.194
    Размер потока : 1,11 Гбайт (76%)
    Библиотека кодирования : XviD 65
    Аудио
    Идентификатор : 1
    Формат : AC-3
    Формат/Информация : Audio Coding 3
    Расширение режима : CM (complete main)
    Идентификатор кодека : 2000
    Продолжительность : 2 ч. 6 м.
    Вид битрейта : Постоянный
    Битрейт : 384 Кбит/сек
    Каналы : 6 каналов
    Расположение каналов : Front: L C R, Side: L R, LFE
    Частота : 48,0 КГц
    Битовая глубина : 16 бит
    Метод сжатия : С потерями
    Размер потока : 349 Мбайт (23%)
    Выравнивание : Разделение по промежуткам
    Продолжительность промежутка : 42 мс. (1,00 видеокадр)
    Время предзагрузки промежутка : 500 мс.
    Заголовок : Dub

    Скриншоты


    Скачать .torrent

    Скачать торрент-файл бесплатно и на максимальной скорости!

    Как скачивать? · Что такое торрент? · Рейтинг и ограничения

    !ВНИМАНИЕ!
    Сайт не распространяет и не хранит электронные версии произведений, а занимается лишь лишь предоставлением доступа к создаваемому пользователями каталогу ссылок на торрент-файлы, которые содержат только списки хеш-сумм, убедительная просьба с жалобами обращаться напрямую к пользователю. Файлы для обмена на трекере предоставлены пользователями сайта, и администрация не несёт ответственности за их содержание. Просьба не заливать файлы, защищенные авторскими правами, а также файлы нелегального содержания!


    _________________
    [Профиль] [ЛС]
    Показать сообщения:    
    Ответить на тему

    Текущее время: Сегодня, в 16:16

    Часовой пояс: GMT + 2



    Вы не можете начинать темы
    Вы не можете отвечать на сообщения
    Вы не можете редактировать свои сообщения
    Вы не можете удалять свои сообщения
    Вы не можете голосовать в опросах
    Вы не можете прикреплять файлы к сообщениям
    Вы не можете скачивать файлы