BitTorrentTracker PerecTracker.org
BitTorrentTracker PerecTracker.org
    
Регистрация  ·  Вход
 
 · 
Забыли пароль?

  • Клиника доктора Бланша / La clinique du docteur Blanche (Сара Леви / Sarah Levy) [2014, Франция, историческая драма, экранизация, DVB -> DVD] Original (Fre) + Sub (Rus, Eng, Fre, Deu)

    Ответить на тему
     
    Автор Сообщение

    rechyn

    Создавать темы 09-Янв-2016 10:13

           

    [Цитировать]

    Клиника доктора Бланша
    La clinique du docteur Blanche-Страна: Франция
    Жанр: историческая драма, экранизация
    Год выпуска: 2014
    Продолжительность: 01:32:35Перевод: Субтитры (русский перевод И.Безлюдной, Éclair Group)
    Cубтитры: русские, английские, французские, немецкие, нидерландские, румынские
    Оригинальная аудиодорожка: французский
    Режиссер: Сара Леви / Sarah Lévy
    В ролях: Стэнли Вебер / Stanley Weber (Émile Blanche), Лионель Астье / Lionnel Astier (Leuret), Филипп Лоденбаш / Philippe Laudenbach (Esprit Blanche), Брюно Лоше / Bruno Lochet (Gérard de Nerval), Серж Рябукен / Serge Riaboukine (Saturnin), Жюли Дюкло / Julie Duclos (Félicie), Даниель Лебрюн / Danièle Lebrun (Sophie Blanche), Грегуар Лепренс-Ренге / Grégoire Leprince-Ringuet (Jules)
    Описание: Вольная адаптация книги Лор Мюра / Laure Murat "Пансион доктора Бланша / La maison du docteur Blanche" (2013).
    "Мир полон безумцев, и тот, кто не хочет их видеть, должен остаться один и разбить зеркало".
    1850 год. Молодой ученый-медик Эмиль Бланш закончил стажировку в государственной больнице Сальпетриер под руководством психиатра профессора Лоре, практикующего на пациентах крайне жестокие методы, и приступает к работе в психиатрической клинике своего отца Эсприта Бланша в поместье Пасси. Здесь практикуется совсем другой подход к пациентам. В роскошных залах находят отдохновение аристократы, художники и писатели, скрывающие от общества свое безумие. Пациентами клиники доктора Бланша были: композитор Шарль Гуно, младший брат великого художника Винсента ван Гога Тео, писатель Ги де Мопассан, поэт Жерар де Нерваль. Два мира: государственных и частных клиник практикует совершенно разные методы лечения психических заболеваний. Желая бросить вызов своему учителю, Эмиль забирает в клинику отца пациента с асфазией, в результате которой тот полностью лишен речи…
    Доп. информация: Hot Bird (13.0°E) TV5MONDE Europe DVB-S.
    Участник Festival International de Programmes Audiovisuels (France) 2014.

    Качество видео: DVB
    Формат видео: DVD Video
    Видео: MPEG Video 2, 720x576@1024x576 (16:9), 25 fps, ~3211 kbps avg, 0.310 bit/pixel
    Аудио: MPEG Audio 2, 2 ch, 48 kHz, 192 kbps - французский
    Формат субтитров: prerendered (IDX+SUB)

    MediaInfo

    Title: [apreder]La_clinique_du_docteur_Blanche(2014)DVBSize: 2.24 Gb ( 2 352 652,00 KBytes ) - DVD-5Enabled regions: 1, 2, 3, 4, 5, 6, 7, 8
    VTS_01 : Play Length: 01:32:35 Video: PAL 16:9 (720x576) VBR, Auto Letterboxed Audio: Francais (MPEG1, 2 ch) Subtitles: Russian English Francais Deutsch Nederlands Romanian
    ОбщееПолное имя : F:\My Torrents 3\[apreder]La_clinique_du_docteur_Blanche(2014)DVB\VIDEO_TS\VTS_01_1.VOBФормат : MPEG-PSРазмер файла : 1024 МбайтПродолжительность : 41 м.Режим общего битрейта : ПеременныйОбщий поток : 3473 Кбит/сек
    ВидеоИдентификатор : 224 (0xE0)Формат : MPEG VideoВерсия формата : Version 2Профиль формата : Main@MainПараметр BVOP формата : ДаПараметр матрицы формата : ВыборочнаяПараметр GOP формата : VariableFormat_Settings_PictureStructure : FrameПродолжительность : 41 м.Вид битрейта : ПеременныйБитрейт : 3211 Кбит/секШирина : 720 пикселейВысота : 576 пикселейСоотношение сторон : 16:9Частота кадров : 25,000 кадров/секСтандарт вещания : PALЦветовое пространство : YUVСубдискретизация насыщенности : 4:2:0Битовая глубина : 8 битТип развёртки : ЧересстрочнаяПорядок развёртки : Верхнее поле первоеМетод сжатия : С потерямиБит/(Пиксели*Кадры) : 0.310Временной код первого кадра : 00:00:00:00Оригинал временного кода : Group of pictures headerРазмер потока : 947 Мбайт (92%)
    АудиоИдентификатор : 192 (0xC0)Формат : MPEG AudioВерсия формата : Version 1Профиль формата : Layer 2Режим : Joint stereoРасширение режима : Intensity Stereo + MS StereoПродолжительность : 41 м.Вид битрейта : ПостоянныйБитрейт : 192 Кбит/секКаналы : 2 каналаЧастота : 48,0 КГцМетод сжатия : С потерямиРазмер потока : 56,6 Мбайт (6%)
    Текст #1Идентификатор : 189 (0xBD)-32 (0x20)Формат : RLEФормат/Информация : Run-length encodingРежим смешивания : DVD-VideoПродолжительность : 41 м.Задержка видео : 4 с. 160 мс.
    Текст #2Идентификатор : 189 (0xBD)-33 (0x21)Формат : RLEФормат/Информация : Run-length encodingРежим смешивания : DVD-VideoПродолжительность : 41 м.Задержка видео : 4 с. 160 мс.
    Текст #3Идентификатор : 189 (0xBD)-35 (0x23)Формат : RLEФормат/Информация : Run-length encodingРежим смешивания : DVD-VideoПродолжительность : 41 м.Задержка видео : 4 с. 160 мс.
    Текст #4Идентификатор : 189 (0xBD)-36 (0x24)Формат : RLEФормат/Информация : Run-length encodingРежим смешивания : DVD-VideoПродолжительность : 41 м.Задержка видео : 4 с. 160 мс.
    Текст #5Идентификатор : 189 (0xBD)-37 (0x25)Формат : RLEФормат/Информация : Run-length encodingРежим смешивания : DVD-VideoПродолжительность : 41 м.Задержка видео : 4 с. 440 мс.
    Текст #6Идентификатор : 189 (0xBD)-34 (0x22)Формат : RLEФормат/Информация : Run-length encodingРежим смешивания : DVD-Video

    Скриншот c названием фильма

    Скриншоты

    Резервные скриншоты


    -[2'839]
    Скачать .torrent

    Скачать торрент-файл бесплатно и на максимальной скорости!

    Как скачивать? · Что такое торрент? · Рейтинг и ограничения

    !ВНИМАНИЕ!
    Сайт не распространяет и не хранит электронные версии произведений, а занимается лишь лишь предоставлением доступа к создаваемому пользователями каталогу ссылок на торрент-файлы, которые содержат только списки хеш-сумм, убедительная просьба с жалобами обращаться напрямую к пользователю. Файлы для обмена на трекере предоставлены пользователями сайта, и администрация не несёт ответственности за их содержание. Просьба не заливать файлы, защищенные авторскими правами, а также файлы нелегального содержания!


    _________________
    [Профиль] [ЛС]
    Показать сообщения:    
    Ответить на тему

    Текущее время: Сегодня, в 08:20

    Часовой пояс: GMT + 2



    Вы не можете начинать темы
    Вы не можете отвечать на сообщения
    Вы не можете редактировать свои сообщения
    Вы не можете удалять свои сообщения
    Вы не можете голосовать в опросах
    Вы не можете прикреплять файлы к сообщениям
    Вы не можете скачивать файлы