Register  ·  Log in
Forgot password?

  • Включите северное сияние (Радомир Василевский) [1972, детский, DVB]

    Reply to topic
    Author Message


    Post 08-Jan-2016 18:38



    Включите северное сияние
    Жанр: детский
    Год выпуска: 1972
    Продолжительность: 01:15:53
    Режиссёр: Радомир Василевский
    В ролях: Ольга Казакова, Костя Леневский, Игорь Меркулов, Елена Легурова, Евгений Леонов-Гладышев, Т. Пегова, Люсьена Овчинникова, Константин Степанков, Валерий Рыжаков, Иван Рыжов, Таисия Котеничева, Ольга Матешко, Пётр Соболевский, Георгий Милляр, Валентина Телегина, Миша Шунин
    Описание: Коля Чимбарцев приехал из Одессы в северный порт Красин, чтобы жить и учиться в школе-интернате. Отец, находящийся на гидропосту, не смог встретить сына.
    Качество видео: DVB
    Формат видео: MPG
    Видео: MPEG2, 720x576, 4:3, 25.00fps, 2911 Kbps
    Аудио: MP2 2.0, 48 kHz, 192 kbps


    Complete name : Включите северное сияние (1972) DVB.mpg
    Format : MPEG-PS
    File size : 1.68 GiB
    Duration : 1h 15mn
    Overall bit rate mode : Variable
    Overall bit rate : 3 166 Kbps
    ID : 224 (0xE0)
    Format : MPEG Video
    Format version : Version 2
    Format profile : Main@Main
    Format settings, BVOP : Yes
    Format settings, Matrix : Custom
    Format settings, GOP : Variable
    Format settings, picture structure : Frame
    Duration : 1h 15mn
    Bit rate mode : Variable
    Bit rate : 2 911 Kbps
    Maximum bit rate : 15.0 Mbps
    Width : 720 pixels
    Height : 576 pixels
    Display aspect ratio : 4:3
    Frame rate : 25.000 fps
    Standard : PAL
    Color space : YUV
    Chroma subsampling : 4:2:0
    Bit depth : 8 bits
    Scan type : Interlaced
    Scan order : Top Field First
    Compression mode : Lossy
    Bits/(Pixel*Frame) : 0.281
    Time code of first frame : 00:00:00:00
    Time code source : Group of pictures header
    GOP, Open/Closed : Open
    Stream size : 1.54 GiB (92%)
    GOP, Open/Closed of first frame : Closed
    ID : 192 (0xC0)
    Format : MPEG Audio
    Format version : Version 1
    Format profile : Layer 2
    Duration : 1h 15mn
    Bit rate mode : Constant
    Bit rate : 192 Kbps
    Channel(s) : 2 channels
    Sampling rate : 48.0 KHz
    Compression mode : Lossy
    Stream size : 104 MiB (6%)


    Download .torrent

    Download free and at maximum speed!

    How to Download? · What is a torrent? · Ratings and Limitations

    The site does not extend and does not store electronic(digital) versions of products, and only gives access to a reference catalogue created by users on torrent-files which contain only lists of the hash-sums, the earnest entreaty, with complaints(abuse) to access directly to the user. Files for an exchange on tracker are given by users of a site, and the administration does not bear the responsibility for their maintenance. The request to not fill in the files protected by copyrights, and also files of the illegal maintenance!

    [Profile] [PM]
    Display posts from previous:    
    Reply to topic

    The time now is: Today 23:38

    All times are GMT + 3 Hours

    You cannot post new topics in this forum
    You cannot reply to topics in this forum
    You cannot edit your posts in this forum
    You cannot delete your posts in this forum
    You cannot vote in polls in this forum
    You cannot attach files in this forum
    You cannot download files in this forum