Register  ·  Log in
Forgot password?

  • Визит / The Visit (М. Найт Шьямалан / M. Night Shyamalan) [2015, США, ужасы, триллер, BDRip] Dub

    Reply to topic
    Author Message


    Post 08-Jan-2016 02:04



    Визит / The Visit-«Любовь родственников не знает предела»-Страна: США
    Студии: Blinding Edge Pictures, Blumhouse Productions
    Жанр: ужасы, триллер
    Год выпуска: 2015
    Продолжительность: 01:34:01
    Перевод: Профессиональный (дублированный) - | Лицензия - BD CEE |
    Cубтитры: нет
    Оригинальная аудиодорожка: нет-Режиссер: М. Найт Шьямалан / M. Night Shyamalan-В ролях: Оливия ДеДжонг, Эд Оксенбульд, Дианна Данаган, Питер МакРобби, Кэтрин Хан, Селия Кинэн-Болджер, Самуэль Стриклен, Патрик Дарро, Хорхе Кордова, Стив Аннан...-Описание: Много лет назад она бежала из родительского дома без оглядки и с тех пор старалась не вспоминать события той самой ночи. Теперь у нее уже взрослые дети. Однажды они получают приглашения от бабушки и дедушки, которых никогда не видели прежде, и решают нанести им визит.--Качество видео: BDRip | The.Visit.2015.Blu-Ray.Remux.1080p - HDClub |
    Формат видео: AVI
    Видео: 720x384, 23.976 fps, XviD build 73 ~1752 kbps avg, 0.270 bit/pixel
    Аудио: 48 kHz, AC3 Dolby Digital, 3/2 (L,C,R,l,r) + LFE ch, ~448.00 kbps

    Дополнительно о фильме:

    Производство, студия дубляжа, прокат:


    Complete name : The Visit.BDRip.By_Flash.avi
    Format : AVI
    Format/Info : Audio Video Interleave
    File size : 1.45 GiB
    Duration : 1h 34mn
    Overall bit rate : 2 209 Kbps
    Writing application : VirtualDubMod | || (build 2550/release)
    Writing library : VirtualDubMod build 2550/release
    ID : 0
    Format : MPEG-4 Visual
    Format profile : Advanced Simple@L5
    Format settings, BVOP : 1
    Format settings, QPel : No
    Format settings, GMC : No warppoints
    Format settings, Matrix : Custom
    Codec ID : XVID
    Codec ID/Hint : XviD
    Duration : 1h 34mn
    Bit rate : 1 752 Kbps
    Width : 720 pixels
    Height : 384 pixels
    Display aspect ratio : 1.85:1
    Frame rate : 23.976 fps
    Color space : YUV
    Chroma subsampling : 4:2:0
    Bit depth : 8 bits
    Scan type : Progressive
    Compression mode : Lossy
    Bits/(Pixel*Frame) : 0.264
    Stream size : 1.15 GiB (79%)
    Writing library : XviD 73
    ID : 1
    Format : AC-3
    Format/Info : Audio Coding 3
    Mode extension : CM (complete main)
    Format settings, Endianness : Big
    Codec ID : 2000
    Duration : 1h 33mn
    Bit rate mode : Constant
    Bit rate : 448 Kbps
    Channel(s) : 6 channels
    Channel positions : Front: L C R, Side: L R, LFE
    Sampling rate : 48.0 KHz
    Bit depth : 16 bits
    Compression mode : Lossy
    Stream size : 301 MiB (20%)
    Alignment : Split accross interleaves
    Interleave, duration : 42 ms (1.00 video frame)
    Interleave, preload duratio : 500 ms

    Скриншот c названием фильма


    Download .torrent

    Download free and at maximum speed!

    How to Download? · What is a torrent? · Ratings and Limitations

    The site does not extend and does not store electronic(digital) versions of products, and only gives access to a reference catalogue created by users on torrent-files which contain only lists of the hash-sums, the earnest entreaty, with complaints(abuse) to access directly to the user. Files for an exchange on tracker are given by users of a site, and the administration does not bear the responsibility for their maintenance. The request to not fill in the files protected by copyrights, and also files of the illegal maintenance!

    [Profile] [PM]
    Display posts from previous:    
    Reply to topic

    The time now is: Today 23:14

    All times are GMT + 3 Hours

    You cannot post new topics in this forum
    You cannot reply to topics in this forum
    You cannot edit your posts in this forum
    You cannot delete your posts in this forum
    You cannot vote in polls in this forum
    You cannot attach files in this forum
    You cannot download files in this forum