BitTorrentTracker PerecTracker.org
BitTorrentTracker PerecTracker.org
    
Регистрация  ·  Вход
 
 · 
Забыли пароль?

  • Я остаюсь (Карен Оганесян) [2006, Драма, трагикомедия, SATRip]

    Ответить на тему
     
    Автор Сообщение

    rechyn

    Создавать темы 07-Янв-2016 20:59

           

    [Цитировать]

    Я остаюсь
    Жанр: Драма, трагикомедия
    Год выпуска: 2006
    Продолжительность: 01:52:41
    Режиссёр: Карен Оганесян
    В ролях: Андрей Краско, Фёдор Бондарчук, Нелли Уварова, Владимир Епифанцев, Елена Яковлева, Галина Польских, Елена Бондарчук, Константин Соловьев, Ирина Гринёва, Андрей Соколов
    Описание: Многие подозревают, что после смерти жизнь не заканчивается. Доктор Тырса, человек практичный и скептически настроенный по отношению ко всему, в такую ерунду никогда не верил...
    Пока по вине неловко брошенного шара для боулинга не оказался на пустынной равнине вместе с такими же, как он — людьми уже не принадлежащими этому миру, но еще и не принятыми в мир иной. Тут-то и понял Виктор Палыч Тырса, что жизнь, которой он жил до сих пор не так уж и плоха, и ему есть, зачем к ней возвращаться.
    Доп. информация: Последняя роль в кино российского актёра Андрея Краско.
    Премьера - 19 апреля 2007.
    Специальный приз «Серебряный абрикос» ежегодного кинематографического фестиваля «Золотой абрикос», проводимого в Ереване (Армения).
    Первоначально фильм имел названия «Вторая жизнь доктора Тырсы» и «Кома».
    Сэмпл: http://multi-up.com/1083021
    Качество видео: SATRip
    Формат видео: AVI
    Видео: 704x400 (16:9), 25 fps, XviD build 64 ~1595 kbps avg, 0.23 bit/pixel
    Аудио: 48 kHz, MPEG Layer 3, 2 ch, ~192.00 kbps avg

    MediaInfo

    Общее
    Полное имя : D:\01 РАЗДАЧИ ФИЛЬМЫ\Я остаюсь МОЙЗАП\Я остаюсь_2006.avi
    Формат : AVI
    Формат/Информация : Audio Video Interleave
    Профиль формата : OpenDML
    Размер файла : 1,41 Гбайт
    Продолжительность : 1 ч. 52 м.
    Общий поток : 1795 Кбит/сек
    Программа кодирования : Lavf54.63.100
    Видео
    Идентификатор : 0
    Формат : MPEG-4 Visual
    Профиль формата : Advanced Simple@L5
    Параметр BVOP формата : 2
    Параметр QPel формата : Нет
    Параметр GMC формата : Без точки перехода
    Параметр матрицы формата : Default (H.263)
    Идентификатор кодека : XVID
    Идентификатор кодека/Подсказка : XviD
    Продолжительность : 1 ч. 52 м.
    Битрейт : 1588 Кбит/сек
    Ширина : 704 пикселя
    Высота : 400 пикселей
    Соотношение сторон : 16:9
    Частота кадров : 25,000 кадров/сек
    Цветовое пространство : YUV
    Субдискретизация насыщенности : 4:2:0
    Битовая глубина : 8 бит
    Тип развёртки : Прогрессивная
    Метод сжатия : С потерями
    Бит/(Пиксели*Кадры) : 0.226
    Размер потока : 1,25 Гбайт (88%)
    Библиотека кодирования : XviD 64
    Аудио
    Идентификатор : 1
    Формат : MPEG Audio
    Версия формата : Version 1
    Профиль формата : Layer 3
    Идентификатор кодека : 55
    Идентификатор кодека/Подсказка : MP3
    Продолжительность : 1 ч. 52 м.
    Вид битрейта : Постоянный
    Битрейт : 192 Кбит/сек
    Каналы : 2 канала
    Частота : 48,0 КГц
    Метод сжатия : С потерями
    Размер потока : 155 Мбайт (11%)
    Выравнивание : Соединение по промежуткам
    Продолжительность промежутка : 24 мс. (0,60 видеокадр)
    Время предзагрузки промежутка : 24 мс.
    Библиотека кодирования : LAME3.99.5~ЦЉў“%HџЂ

    Скриншот c названием фильма

    Скриншоты

    Скачать .torrent

    Скачать торрент-файл бесплатно и на максимальной скорости!

    Как скачивать? · Что такое торрент? · Рейтинг и ограничения

    !ВНИМАНИЕ!
    Сайт не распространяет и не хранит электронные версии произведений, а занимается лишь лишь предоставлением доступа к создаваемому пользователями каталогу ссылок на торрент-файлы, которые содержат только списки хеш-сумм, убедительная просьба с жалобами обращаться напрямую к пользователю. Файлы для обмена на трекере предоставлены пользователями сайта, и администрация не несёт ответственности за их содержание. Просьба не заливать файлы, защищенные авторскими правами, а также файлы нелегального содержания!


    _________________
    [Профиль] [ЛС]
    Показать сообщения:    
    Ответить на тему

    Текущее время: Сегодня, в 23:13

    Часовой пояс: GMT + 2



    Вы не можете начинать темы
    Вы не можете отвечать на сообщения
    Вы не можете редактировать свои сообщения
    Вы не можете удалять свои сообщения
    Вы не можете голосовать в опросах
    Вы не можете прикреплять файлы к сообщениям
    Вы не можете скачивать файлы