BitTorrentTracker PerecTracker.org
BitTorrentTracker PerecTracker.org
    
Регистрация  ·  Вход
 
 · 
Забыли пароль?

  • Лепестки на ветру / Petals on the Wind (Карен Монкрифф / Karen Moncrieff) [2014, США, Психологическая драма, трагедия, WEB-DLRip] VO (ViruseProject)

    Ответить на тему
     
    Автор Сообщение

    rechyn

    Создавать темы 07-Янв-2016 20:59

           

    [Цитировать]

    Лепестки на ветру / Petals on the Wind
    Страна: США
    Жанр: Психологическая драма, трагедия
    Год выпуска: 2014
    Продолжительность: 01:28:01
    Перевод: Одноголосый закадровый (ViruseProject)
    Cубтитры: отcутствуют
    Оригинальная аудиодорожка: нет
    Режиссёр: Карен Монкрифф / Karen Moncrieff
    Актёры: Хэзер Грэм, Роуз МакАйвер, Уайатт Нэш, Бейли Де Янг, Ник Сирси, Дилан Брюс, Уилл Кемп, Уитни Хой, Эллиа Инглиш, Эллен Бёрстин, и др.
    Краткая аннотация: Действия данного телефильма, разворачиваются через 10 лет после событий, показанных в телефильме «Цветы на чердаке».
    Дополнительная информация: Телефильм «Сквозь тернии» - является продолжением данного телефильма.

    Качество видео: WEB-DLRip
    Формат видео: AVI
    Video: 688x384 (1.79:1), 23.976 fps, XviD build 73 ~1053 kbps avg, 0.17 bit/pixel
    Audio: 48 kHz, MPEG Layer 3, 2 ch, ~128.00 kbps avg

    AviInfo

    File: Petals_on_the_Wind_2014_WEB-DLRip_[perectracker.org].aviTitle: Petals_on_the_Wind_2014_WEB-DLRip_[perectracker.org]Author: OGORODNIKOFFFCopyleft: perectracker.orgGenre: Драма, трагедияCategory: ТелефильмComment: Дата рипа 28 декабря 2015 годаFilesize: 749.80 Mb ( 786 223 104 bytes )Play length: 01:28:01.075 (126619 frames)Subtitles: Not PresentVideo: 688x384 (1.79:1), 23.976 fps, XviD build 73 ~1053 kbps avg, 0.17 bit/pixelAudio: 48 kHz, MPEG Layer 3, 2 ch, ~128.00 kbps avg

    MediaInfo

    ОбщееПолное имя : С:\Petals_on_the_Wind_2014_WEB-DLRip_[perectracker.org].aviФормат : AVIФормат/Информация : Audio Video InterleaveРазмер файла : 750 МбайтПродолжительность : 1 ч. 28 м.Общий поток : 1191 Кбит/секНазвание фильма : Petals_on_the_Wind_2014_WEB-DLRip_[perectracker.org]Режиссёр : OGORODNIKOFFFЖанр : Драма, трагедияПрограмма кодирования : VirtualDubModRus 1.5.10.2 (build 2542/release)Формат оригинала/Имя : ТелефильмПравообладатель : perectracker.orgПримечание : Дата рипа 28 декабря 2015 года
    ВидеоИдентификатор : 0Формат : MPEG-4 VisualПрофиль формата : Advanced Simple@L5Параметр BVOP формата : 1Параметр QPel формата : НетПараметр GMC формата : Без точки переходаПараметр матрицы формата : Default (MPEG)Идентификатор кодека : DX50Идентификатор кодека/Подсказка : DivX 5Продолжительность : 1 ч. 28 м.Битрейт : 1054 Кбит/секШирина : 688 пикселейВысота : 384 пикселяСоотношение сторон : 16:9Частота кадров : 23,976 кадра/секЦветовое пространство : YUVСубдискретизация насыщенности : 4:2:0Битовая глубина : 8 битТип развёртки : ПрогрессивнаяМетод сжатия : С потерямиБит/(Пиксели*Кадры) : 0.166Размер потока : 663 Мбайт (88%)Библиотека кодирования : XviD 73
    АудиоИдентификатор : 1Формат : MPEG AudioВерсия формата : Version 1Профиль формата : Layer 3Режим : Joint stereoРасширение режима : MS StereoИдентификатор кодека : 55Идентификатор кодека/Подсказка : MP3Продолжительность : 1 ч. 28 м.Вид битрейта : ПостоянныйБитрейт : 128 Кбит/секКаналы : 2 каналаЧастота : 48,0 КГцМетод сжатия : С потерямиРазмер потока : 80,6 Мбайт (11%)Выравнивание : Соединение по промежуткамПродолжительность промежутка : 42 мс. (1,00 видеокадр)Время предзагрузки промежутка : 504 мс.Библиотека кодирования : LAME3.99rНастройки программы : -m j -V 4 -q 2 -lowpass 17 -b 128

    Скриншот c названием фильма

    Скриншоты

    Время раздачи - по возможности.
    Скачать .torrent

    Скачать торрент-файл бесплатно и на максимальной скорости!

    Как скачивать? · Что такое торрент? · Рейтинг и ограничения

    !ВНИМАНИЕ!
    Сайт не распространяет и не хранит электронные версии произведений, а занимается лишь лишь предоставлением доступа к создаваемому пользователями каталогу ссылок на торрент-файлы, которые содержат только списки хеш-сумм, убедительная просьба с жалобами обращаться напрямую к пользователю. Файлы для обмена на трекере предоставлены пользователями сайта, и администрация не несёт ответственности за их содержание. Просьба не заливать файлы, защищенные авторскими правами, а также файлы нелегального содержания!


    _________________
    [Профиль] [ЛС]
    Показать сообщения:    
    Ответить на тему

    Текущее время: Сегодня, в 10:04

    Часовой пояс: GMT + 2



    Вы не можете начинать темы
    Вы не можете отвечать на сообщения
    Вы не можете редактировать свои сообщения
    Вы не можете удалять свои сообщения
    Вы не можете голосовать в опросах
    Вы не можете прикреплять файлы к сообщениям
    Вы не можете скачивать файлы