BitTorrentTracker PerecTracker.org
BitTorrentTracker PerecTracker.org
    
Регистрация  ·  Вход
 
 · 
Забыли пароль?

  • Области тьмы / Limitless / Сезон: 1 / Серии: 1-12 из 22 (Нил Бёргер, Марк Уэбб) [2015, Фантастика, триллер, драма, WEB-DL 720p] MVO (BaibaKo) + Original

    Ответить на тему
     
    Автор Сообщение

    rechyn

    Создавать темы 07-Янв-2016 19:53

           

    [Цитировать]

    -Области тьмы | Limitless-Год выпуска: 2015
    Страна: США
    Жанр: Фантастика, триллер, драма
    Продолжительность: ~ 00:44:00-Перевод: Профессиональный (многоголосый закадровый) | BaibaKo-Режиссёр: Нил Бёргер, Марк Уэбб-В ролях: Джейк Макдорман, Брэдли Купер, Дженнифер Карпентер, Хилл Харпер, Мэри Элизабет Мастрантонио, Генри Джальярди, Майкл Джеймс Шоу, Тревор Брукс, Джина Диас-Описание: Действие сериала начнется там же, где завершился фильм "Области тьмы", но расскажет о Брайане Синклере, который открыл для себя тот самый загадочный наркотик. Полученные благодаря нему способности главный герой использует во благо, помогая ФБР.--| Ссылка на предыдущие и альтернативные раздачи-Качество: WEB-DL 720р
    Формат: MKV
    Видео: x264, ~ 4000 kbps, 1280х720 (16:9), 23,976 fps
    Аудио 1: AC3, 48,0 КГц, 6 ch, 384 kbps - Rus
    Аудио 2: AC3, 48,0 КГц, 6 ch, 384 kbps - Eng
    Субтитры: отсутствуют
    Видео без рекламных роликов.-

    Релиз

    Перевод: Профессиональный (многоголосый, закадровый)
    Релиз-группа: BaibaKo

    MediaInfo

    Общее
    Уникальный идентификатор                 : 187232418529451570204882708512072647712 (0x8CDBA6F2AF9099548BEEB32CA53DC420)
    Полное имя                               : F:\кино\Limitless (s01) HD720p.BaibaKo\Limitless.s01e01.HD720p.WEB-DL.Rus.Eng.BaibaKo.mkv
    Формат                                   : Matroska
    Версия формата                           : Version 4 / Version 2
    Размер файла                             : 1,48 Гбайт
    Продолжительность                        : 43 м.
    Общий поток                              : 4829 Кбит/сек
    Дата кодирования                         : UTC 2015-09-24 12:54:17
    Программа кодирования                    : mkvmerge v7.3.0 ('Nouages') 32bit built on Oct 22 2014 18:44:01
    Библиотека кодирования                   : libebml v1.3.0 + libmatroska v1.4.1
    _STATISTICS_WRITING_APP                  : mkvmerge v7.3.0 ('Nouages') 32bit built on Oct 22 2014 18:44:01
    _STATISTICS_WRITING_DATE_UTC             : 2015-09-24 12:54:17
    _STATISTICS_TAGS                         : BPS DURATION NUMBER_OF_FRAMES NUMBER_OF_BYTES
    DURATION                                 : 00:43:53.151000000
    NUMBER_OF_FRAMES                         : 82286
    NUMBER_OF_BYTES                          : 126391296
    Видео
    Идентификатор                            : 1
    Формат                                   : AVC
    Формат/Информация                        : Advanced Video Codec
    Профиль формата                          : High@L3.1
    Параметр CABAC формата                   : Нет
    Параметр ReFrames формата                : 2 кадра
    Идентификатор кодека                     : V_MPEG4/ISO/AVC
    Продолжительность                        : 43 м.
    Битрейт                                  : 3965 Кбит/сек
    Ширина                                   : 1280 пикселей
    Высота                                   : 720 пикселей
    Соотношение сторон                       : 16:9
    Режим частоты кадров                     : Постоянный
    Частота кадров                           : 24,000 кадра/сек
    Цветовое пространство                    : YUV
    Субдискретизация насыщенности            : 4:2:0
    Битовая глубина                          : 8 бит
    Тип развёртки                            : Прогрессивная
    Бит/(Пиксели*Кадры)                      : 0.179
    Размер потока                            : 1,22 Гбайт (82%)
    Default                                  : Нет
    Forced                                   : Нет
    Основные цвета                           : BT.709
    Характеристики трансфера                 : BT.709
    Коэффициенты матрицы                     : BT.709
    Аудио #1
    Идентификатор                            : 2
    Формат                                   : AC-3
    Формат/Информация                        : Audio Coding 3
    Расширение режима                        : CM (complete main)
    Параметр Endianness формата              : Big
    Идентификатор кодека                     : A_AC3
    Продолжительность                        : 43 м.
    Вид битрейта                             : Постоянный
    Битрейт                                  : 384 Кбит/сек
    Каналы                                   : 6 каналов
    Расположение каналов                     : Front: L C R, Side: L R, LFE
    Частота                                  : 48,0 КГц
    Битовая глубина                          : 16 бит
    Метод сжатия                             : С потерями
    Задержка видео                           : 24 мс.
    Размер потока                            : 121 Мбайт (8%)
    Язык                                     : Russian
    Default                                  : Да
    Forced                                   : Нет
    Аудио #2
    Идентификатор                            : 3
    Формат                                   : AC-3
    Формат/Информация                        : Audio Coding 3
    Расширение режима                        : CM (complete main)
    Параметр Endianness формата              : Big
    Идентификатор кодека                     : A_AC3
    Продолжительность                        : 43 м.
    Вид битрейта                             : Постоянный
    Битрейт                                  : 384 Кбит/сек
    Каналы                                   : 6 каналов
    Расположение каналов                     : Front: L C R, Side: L R, LFE
    Частота                                  : 48,0 КГц
    Битовая глубина                          : 16 бит
    Метод сжатия                             : С потерями
    Задержка видео                           : 22 мс.
    Размер потока                            : 121 Мбайт (8%)
    Язык                                     : English
    Default                                  : Нет
    Forced                                   : Нет

    Скриншоты

    Скачать .torrent

    Скачать торрент-файл бесплатно и на максимальной скорости!

    Как скачивать? · Что такое торрент? · Рейтинг и ограничения

    !ВНИМАНИЕ!
    Сайт не распространяет и не хранит электронные версии произведений, а занимается лишь лишь предоставлением доступа к создаваемому пользователями каталогу ссылок на торрент-файлы, которые содержат только списки хеш-сумм, убедительная просьба с жалобами обращаться напрямую к пользователю. Файлы для обмена на трекере предоставлены пользователями сайта, и администрация не несёт ответственности за их содержание. Просьба не заливать файлы, защищенные авторскими правами, а также файлы нелегального содержания!


    _________________
    [Профиль] [ЛС]
    Показать сообщения:    
    Ответить на тему

    Текущее время: Сегодня, в 06:28

    Часовой пояс: GMT + 2



    Вы не можете начинать темы
    Вы не можете отвечать на сообщения
    Вы не можете редактировать свои сообщения
    Вы не можете удалять свои сообщения
    Вы не можете голосовать в опросах
    Вы не можете прикреплять файлы к сообщениям
    Вы не можете скачивать файлы