BitTorrentTracker PerecTracker.org
BitTorrentTracker PerecTracker.org
    
Регистрация  ·  Вход
 
 · 
Забыли пароль?

  • 45 лет / 45 Years (Эндрю Хэй / Andrew Haigh) [2015, Великобритания, драма, мелодрама, HDRip] MVO + Sub Rus + Original Eng

    Ответить на тему
     
    Автор Сообщение

    rechyn

    Создавать темы 07-Янв-2016 12:49

           

    [Цитировать]

    45 лет / 45 Years
    Страна: Великобритания
    Жанр: драма, мелодрама
    Год выпуска: 2015
    Продолжительность: 01:35:12
    Перевод: Профессиональный (многоголосый закадровый)
    Cубтитры: русские
    Оригинальная аудиодорожка: английский
    Режиссер: Эндрю Хэй / Andrew Haigh
    В ролях: Шарлотта Рэмплинг, Том Кортни, Долли Уэллс, Джеральдин Джеймс, Ханна Чалмерс, Мишель Финч, Ричард Каннингэм, Руфус Райт, Дэвид Сибли, Сэм Александр
    Описание: Кейт и Джефф Меркеры готовятся отметить 45-летнюю годовщину свадьбы. Они так давно вместе и так близки друг другу, что кажется, будто прожили одну жизнь на двоих. Но оказалось, что это не так. Кейт не знала, что за несколько лет до встречи с ней у Джеффа была другая любимая. Во время их путешествия в Швейцарских Альпах она погибла, сорвавшись со скалы. И вот теперь, за неделю до большого торжества, в дом Меркеров пришло письмо с сообщением о том, что ее тело нашли в ледяной пропасти...
    Берлинский кинофестиваль, 2015 год
    Победитель (2):
    Серебряный Медведь за лучшую мужскую роль ( Том Кортни )
    Серебряный Медведь за лучшую женскую роль ( Шарлотта Рэмплинг )
    Номинации: Золотой Медведь


    Сэмпл: http://multi-up.com/1082886
    Качество видео: HDRip
    Формат видео: AVI
    Видео: 720x384 (1.88:1), 23.976 fps, DivX Codec 6.8.5/6.9.1 ~1597 kbps avg, 0.24 bit/pixel
    Аудио: 48 kHz, AC3 Dolby Digital, 2/0 (L,R) ch, ~192 kbps (русский)
    Аудио 2: 48 kHz, AC3 Dolby Digital, 3/2 (L,C,R,l,r) + LFE ch, ~384 kbps (английский)
    Формат субтитров: softsub (SRT)

    MediaInfo

    Общее
    Полное имя : D:\45.Years_2015.HDRip\45.Years_2015.HDRip.avi
    Формат : AVI
    Формат/Информация : Audio Video Interleave
    Размер файла : 1,45 Гбайт
    Продолжительность : 1 ч. 35 м.
    Общий поток : 2187 Кбит/сек
    Видео
    Идентификатор : 0
    Формат : MPEG-4 Visual
    Параметр BVOP формата : 1
    Параметр QPel формата : Нет
    Параметр GMC формата : Без точки перехода
    Параметр матрицы формата : Default (H.263)
    Идентификатор кодека : DX50
    Идентификатор кодека/Подсказка : DivX 5
    Продолжительность : 1 ч. 35 м.
    Битрейт : 1597 Кбит/сек
    Ширина : 720 пикселей
    Высота : 384 пикселя
    Соотношение сторон : 1,85:1
    Частота кадров : 23,976 кадра/сек
    Цветовое пространство : YUV
    Субдискретизация насыщенности : 4:2:0
    Битовая глубина : 8 бит
    Тип развёртки : Прогрессивная
    Метод сжатия : С потерями
    Бит/(Пиксели*Кадры) : 0.241
    Размер потока : 1,06 Гбайт (73%)
    Библиотека кодирования : DivX 6.8.5 (UTC 2009-08-20)
    Аудио #1
    Идентификатор : 1
    Формат : AC-3
    Формат/Информация : Audio Coding 3
    Расширение режима : CM (complete main)
    Параметр Endianness формата : Big
    Идентификатор кодека : 2000
    Продолжительность : 1 ч. 35 м.
    Вид битрейта : Постоянный
    Битрейт : 192 Кбит/сек
    Каналы : 2 канала
    Расположение каналов : Front: L R
    Частота : 48,0 КГц
    Метод сжатия : С потерями
    Размер потока : 131 Мбайт (9%)
    Выравнивание : Разделение по промежуткам
    Продолжительность промежутка : 42 мс. (1,00 видеокадр)
    Время предзагрузки промежутка : 500 мс.
    Аудио #2
    Идентификатор : 2
    Формат : AC-3
    Формат/Информация : Audio Coding 3
    Расширение режима : CM (complete main)
    Параметр Endianness формата : Big
    Идентификатор кодека : 2000
    Продолжительность : 1 ч. 35 м.
    Вид битрейта : Постоянный
    Битрейт : 384 Кбит/сек
    Каналы : 6 каналов
    Расположение каналов : Front: L C R, Side: L R, LFE
    Частота : 48,0 КГц
    Метод сжатия : С потерями
    Размер потока : 261 Мбайт (18%)
    Выравнивание : Разделение по промежуткам
    Продолжительность промежутка : 42 мс. (1,00 видеокадр)
    Время предзагрузки промежутка : 500 мс.

    Скриншот c названием фильма

    Скриншоты

    Скачать .torrent

    Скачать торрент-файл бесплатно и на максимальной скорости!

    Как скачивать? · Что такое торрент? · Рейтинг и ограничения

    !ВНИМАНИЕ!
    Сайт не распространяет и не хранит электронные версии произведений, а занимается лишь лишь предоставлением доступа к создаваемому пользователями каталогу ссылок на торрент-файлы, которые содержат только списки хеш-сумм, убедительная просьба с жалобами обращаться напрямую к пользователю. Файлы для обмена на трекере предоставлены пользователями сайта, и администрация не несёт ответственности за их содержание. Просьба не заливать файлы, защищенные авторскими правами, а также файлы нелегального содержания!


    _________________
    [Профиль] [ЛС]
    Показать сообщения:    
    Ответить на тему

    Текущее время: Сегодня, в 00:11

    Часовой пояс: GMT + 2



    Вы не можете начинать темы
    Вы не можете отвечать на сообщения
    Вы не можете редактировать свои сообщения
    Вы не можете удалять свои сообщения
    Вы не можете голосовать в опросах
    Вы не можете прикреплять файлы к сообщениям
    Вы не можете скачивать файлы