Register  ·  Log in
Forgot password?

  • Марьян / Maryan (Бхарат Бала / Bharat Bala) [2013, Индия, Драма, DVDRip] Sub Rus

    Reply to topic
    Author Message


    Post 28-Aug-2013 14:52



    Марьян / MaryanСтрана: Индия
    Жанр: Драма
    Год выпуска: 2013
    Продолжительность: 02:18:24
    Перевод: Субтитры
    Cубтитры: русские
    Оригинальная аудиодорожка: Тамильский
    Режиссер: Бхарат Бала / Bharat Bala
    В ролях: Дхануш, Парвати Менон, Салим Кумар, Ума Рияз Кхан, Аппукутту
    Описание: Марьян готовится вернуться домой после двухгодичного рабочего контракта в Африке. Он с нетерпением ждет встречи со своей невестой, Пани. Непредвиденные обстоятельства поставят под сомнение не только их встречу, но и всю дальнейшую жизнь. Это фильм о надежде, о выживании и, конечно, о любви...
    Музыку написал А.Р. Рахман
    Перевод и тайминг субтитров: Soniya (форум indomania)
    Рип: Vasantsena
    Релиз форума

    Качество видео: DVDRip
    Формат видео: AVI
    Видео: DivX 720х304 25fps 1317Kbps
    Аудио: Pусский (AC3, stereo, 192 Кбит/с, 48,0 КГц)
    Формат субтитров: softsub (SRT)
    Запрещено использование релиза в коммерческих целях, а также использование субтитров без согласия автора.


    Complete name : E:\Maryan.2013.DVDRip.DivX.indomania\Maryan.2013.DVDRip.DivX.indomania.avi
    Format : AVI
    Format/Info : Audio Video Interleave
    File size : 1.47 GiB
    Duration : 2h 18mn
    Overall bit rate : 1 519 Kbps
    Writing application : VirtualDubMod | || (build 2550/release)
    Writing library : VirtualDubMod build 2550/release
    ID : 0
    Format : MPEG-4 Visual
    Format profile : Advanced Simple@L5
    Format settings, BVOP : 1
    Format settings, QPel : No
    Format settings, GMC : No warppoints
    Format settings, Matrix : Default (MPEG)
    Codec ID : DX50
    Codec ID/Hint : DivX 5
    Duration : 2h 18mn
    Bit rate : 1 317 Kbps
    Width : 720 pixels
    Height : 304 pixels
    Display aspect ratio : 2.35:1
    Frame rate : 25.000 fps
    Color space : YUV
    Chroma subsampling : 4:2:0
    Bit depth : 8 bits
    Scan type : Progressive
    Compression mode : Lossy
    Bits/(Pixel*Frame) : 0.241
    Stream size : 1.27 GiB (87%)
    Writing library : XviD 1.2.1 (UTC 2008-12-04)
    ID : 1
    Format : AC-3
    Format/Info : Audio Coding 3
    Mode extension : CM (complete main)
    Codec ID : 2000
    Duration : 2h 18mn
    Bit rate mode : Constant
    Bit rate : 192 Kbps
    Channel(s) : 2 channels
    Channel positions : Front: L R
    Sampling rate : 48.0 KHz
    Bit depth : 16 bits
    Compression mode : Lossy
    Stream size : 190 MiB (13%)
    Alignment : Split accross interleaves
    Interleave, duration : 40 ms (1.00 video frame)
    Interleave, preload duration : 500 ms

    Скриншот c названием фильма


    Download .torrent

    Download free and at maximum speed!

    How to Download? · What is a torrent? · Ratings and Limitations

    The site does not extend and does not store electronic(digital) versions of products, and only gives access to a reference catalogue created by users on torrent-files which contain only lists of the hash-sums, the earnest entreaty, with complaints(abuse) to access directly to the user. Files for an exchange on tracker are given by users of a site, and the administration does not bear the responsibility for their maintenance. The request to not fill in the files protected by copyrights, and also files of the illegal maintenance!

    [Profile] [PM]
    Display posts from previous:    
    Reply to topic

    The time now is: Today 02:21

    All times are GMT + 3 Hours

    You cannot post new topics in this forum
    You cannot reply to topics in this forum
    You cannot edit your posts in this forum
    You cannot delete your posts in this forum
    You cannot vote in polls in this forum
    You cannot attach files in this forum
    You cannot download files in this forum