BitTorrentTracker PerecTracker.org
BitTorrentTracker PerecTracker.org
    
Регистрация  ·  Вход
 
 · 
Забыли пароль?

  • Лепестки на ветру / Petals on the Wind (Карен Монкрифф / Karen Moncrieff) [2014, США, Психологическая драма, трагедия, WEB-DLRip] VO (ViruseProject) + Sub Rus + Original Eng

    Ответить на тему
     
    Автор Сообщение

    rechyn

    Создавать темы 07-Янв-2016 12:49

           

    [Цитировать]

    Лепестки на ветру / Petals on the Wind
    Страна: США
    Жанр: Психологическая драма, трагедия
    Год выпуска: 2014
    Продолжительность: 01:28:01
    Перевод: Одноголосый закадровый (ViruseProject)
    Cубтитры: русские (SubRip format) notabenoid отдельно вложенные
    Оригинальная аудиодорожка: английский отдельно вложенная
    Режиссёр: Карен Монкрифф / Karen Moncrieff
    Актёры: Хэзер Грэм, Роуз МакАйвер, Уайатт Нэш, Бейли Де Янг, Ник Сирси, Дилан Брюс, Уилл Кемп, Уитни Хой, Эллиа Инглиш, Эллен Бёрстин, и др.
    Краткая аннотация: Действия данного телефильма, разворачиваются через 10 лет после событий, показанных в телефильме «Цветы на чердаке».
    Дополнительная информация: Телефильм «Сквозь тернии» - является продолжением данного телефильма.

    Качество видео: WEB-DLRip
    Формат видео: AVI
    Video: 720x400 (1.80:1), 23.976 fps, XviD build 73 ~2194 kbps avg, 0.32 bit/pixel
    Audio #1: 48 kHz, AC3 Dolby Digital, 2/0 (L,R) ch, ~192 kbps
    Audio #2: 48 kHz, AC3 Dolby Digital, 2/0 (L,R) ch, ~224 kbps отдельно

    AviInfo

    File: Petals_on_the_Wind_2014_WEB-DLRip.aviTitle: Petals_on_the_Wind_2014_WEB-DLRipAuthor: OGORODNIKOFFFCopyleft: perectracker.orgGenre: Драма, трагедияCategory: ТелефильмComment: Дата рипа 4 января 2016 годаFilesize: 1508.08 Mb ( 1 581 340 672 bytes )Play length: 01:28:01.075 (126619 frames)Subtitles: rus (SubRip format)Video: 720x400 (1.80:1), 23.976 fps, XviD build 73 ~2194 kbps avg, 0.32 bit/pixelAudio: 48 kHz, AC3 Dolby Digital, 2/0 (L,R) ch, ~192 kbps

    MediaInfo

    ОбщееПолное имя : С:\Petals_on_the_Wind_2014_WEB-DLRip_[perectracker.org]\Petals_on_the_Wind_2014_WEB-DLRip.aviФормат : AVIФормат/Информация : Audio Video InterleaveРазмер файла : 1,47 ГбайтПродолжительность : 1 ч. 28 м.Общий поток : 2395 Кбит/секНазвание фильма : Petals_on_the_Wind_2014_WEB-DLRipРежиссёр : OGORODNIKOFFFЖанр : Драма, трагедияПрограмма кодирования : VirtualDubModRus 1.5.10.2 (build 2542/release)Формат оригинала/Имя : ТелефильмПравообладатель : perectracker.orgПримечание : Дата рипа 4 января 2016 года
    ВидеоИдентификатор : 0Формат : MPEG-4 VisualПрофиль формата : Advanced Simple@L5Параметр BVOP формата : 1Параметр QPel формата : НетПараметр GMC формата : Без точки переходаПараметр матрицы формата : Default (MPEG)Идентификатор кодека : DX50Идентификатор кодека/Подсказка : DivX 5Продолжительность : 1 ч. 28 м.Битрейт : 2194 Кбит/секШирина : 720 пикселейВысота : 400 пикселейСоотношение сторон : 16:9Частота кадров : 23,976 кадра/секЦветовое пространство : YUVСубдискретизация насыщенности : 4:2:0Битовая глубина : 8 битТип развёртки : ПрогрессивнаяМетод сжатия : С потерямиБит/(Пиксели*Кадры) : 0.318Размер потока : 1,35 Гбайт (92%)Библиотека кодирования : XviD 73
    АудиоИдентификатор : 1Формат : AC-3Формат/Информация : Audio Coding 3Расширение режима : CM (complete main)Параметр Endianness формата : BigИдентификатор кодека : 2000Продолжительность : 1 ч. 28 м.Вид битрейта : ПостоянныйБитрейт : 192 Кбит/секКаналы : 2 каналаРасположение каналов : Front: L RЧастота : 48,0 КГцБитовая глубина : 16 битМетод сжатия : С потерямиРазмер потока : 121 Мбайт (8%)Выравнивание : Разделение по промежуткамПродолжительность промежутка : 42 мс. (1,00 видеокадр)Время предзагрузки промежутка : 500 мс.
    ОбщееПолное имя : С:\Petals_on_the_Wind_2014_WEB-DLRip_[perectracker.org]\Petals_on_the_Wind_2014_WEB-DLRip.eng.ac3Формат : AC-3Формат/Информация : Audio Coding 3Размер файла : 141 МбайтПродолжительность : 1 ч. 28 м.Режим общего битрейта : ПостоянныйОбщий поток : 224 Кбит/сек
    АудиоФормат : AC-3Формат/Информация : Audio Coding 3Расширение режима : CM (complete main)Параметр Endianness формата : BigПродолжительность : 1 ч. 28 м.Вид битрейта : ПостоянныйБитрейт : 224 Кбит/секКаналы : 2 каналаРасположение каналов : Front: L RЧастота : 48,0 КГцБитовая глубина : 16 битМетод сжатия : С потерямиРазмер потока : 141 Мбайт (100%)
    ОбщееПолное имя : С:\Petals_on_the_Wind_2014_WEB-DLRip_[perectracker.org]\Petals_on_the_Wind_2014_WEB-DLRip.rus.srtФормат : SubRipРазмер файла : 92,4 Кбайт
    ТекстФормат : SubRipМетод сжатия : Без потерь

    Скриншот c названием фильма

    Скриншоты

    Скачать .torrent

    Скачать торрент-файл бесплатно и на максимальной скорости!

    Как скачивать? · Что такое торрент? · Рейтинг и ограничения

    !ВНИМАНИЕ!
    Сайт не распространяет и не хранит электронные версии произведений, а занимается лишь лишь предоставлением доступа к создаваемому пользователями каталогу ссылок на торрент-файлы, которые содержат только списки хеш-сумм, убедительная просьба с жалобами обращаться напрямую к пользователю. Файлы для обмена на трекере предоставлены пользователями сайта, и администрация не несёт ответственности за их содержание. Просьба не заливать файлы, защищенные авторскими правами, а также файлы нелегального содержания!


    _________________
    [Профиль] [ЛС]
    Показать сообщения:    
    Ответить на тему

    Текущее время: Сегодня, в 14:28

    Часовой пояс: GMT + 2



    Вы не можете начинать темы
    Вы не можете отвечать на сообщения
    Вы не можете редактировать свои сообщения
    Вы не можете удалять свои сообщения
    Вы не можете голосовать в опросах
    Вы не можете прикреплять файлы к сообщениям
    Вы не можете скачивать файлы